<?xml version="1.0" standalone="no"?>
<!DOCTYPE svg PUBLIC "-//W3C//DTD SVG 1.1//EN" "http://www.w3.org/Graphics/SVG/1.1/DTD/svg11.dtd" >
<svg xmlns="http://www.w3.org/2000/svg">
<metadata></metadata>
<defs>
<font id="aurebeshregular" horiz-adv-x="1865" >
<font-face units-per-em="2048" ascent="1638" descent="-410" />
<missing-glyph horiz-adv-x="962" />
<glyph horiz-adv-x="2048" />
<glyph horiz-adv-x="2048" />
<glyph unicode="&#xd;" horiz-adv-x="962" />
<glyph unicode=" "  horiz-adv-x="962" />
<glyph unicode="&#x09;" horiz-adv-x="962" />
<glyph unicode="&#xa0;" horiz-adv-x="962" />
<glyph unicode="!" horiz-adv-x="614" d="M0 68v243l367 387v-243zM0 543v243l367 388v-244z" />
<glyph unicode="&#x22;" horiz-adv-x="1153" d="M0 811v643h244v-520l516 520h327l-636 -643h-451z" />
<glyph unicode="$" horiz-adv-x="2088" d="M0 1034l205 242h313v221h232v-221h110v221h232v-221h858l-1086 -1278h-325l878 1036h-325v-217h-232v217h-110v-217h-232v217h-518z" />
<glyph unicode="'" horiz-adv-x="634" d="M0 1331l78 80h307v-580l-213 -213v713h-172z" />
<glyph unicode="(" horiz-adv-x="747" d="M0 522v244h256v520h246v-1286h-246v522h-256z" />
<glyph unicode=")" horiz-adv-x="714" d="M0 0v1286h244v-520h258v-244h-258v-522h-244z" />
<glyph unicode="," horiz-adv-x="491" d="M0 0v643h244v-643h-244z" />
<glyph unicode="-" horiz-adv-x="991" d="M0 1034l2 242l713 2v-244h-715z" />
<glyph unicode="." horiz-adv-x="917" d="M0 2v643h244v-643h-244zM424 2v643h246v-643h-246z" />
<glyph unicode="/" horiz-adv-x="712" d="M0 2v559l244 166v561h245v-561l-245 -166v-559h-244z" />
<glyph unicode="0" d="M0 72v1126q0 29 21.5 50.5t52.5 21.5h1513q31 0 52.5 -21.5t21.5 -50.5v-1126q0 -31 -21.5 -52.5t-52.5 -21.5h-1513q-31 0 -52.5 21.5t-21.5 52.5zM242 240h1177v788h-1177v-788z" />
<glyph unicode="1" horiz-adv-x="651" d="M0 1028l205 242h241v-1272h-241v1030h-205z" />
<glyph unicode="2" d="M0 -2v637v47q0 31 20 51q23 23 54 23h1345v272h-1177v-88h-242v209v37q6 18 11 37.5t9 25.5q25 20 54 21h1513q31 0 51 -21q23 -23 23 -51v-563v-47q0 -31 -23 -53q-20 -20 -51 -21h-1345v-274h1419v-242h-1661z" />
<glyph unicode="3" d="M0 -2v242h1419v274h-1419l150 242h1269v272h-1419v242h1542h45q31 0 52.5 -21.5t21.5 -50.5v-489q0 -31 -21.5 -52.5t-52.5 -21.5q31 0 52.5 -21.5t21.5 -52.5v-489q0 -31 -21.5 -52.5t-52.5 -21.5h-96h-1491z" />
<glyph unicode="4" horiz-adv-x="1892" d="M0 514l502 598h299l-271 -356h1158v-242h-271v-516h-241v516h-1176zM1174 915v355h241v-355h-241z" />
<glyph unicode="5" d="M0 -2v242h1419v274h-1419v756h1661v-242h-1419v-272h1345q31 0 51 -21q23 -23 23 -53v-47v-563q0 -33 -23 -52q-18 -23 -51 -22h-1587z" />
<glyph unicode="6" d="M0 84v35v999v80q0 29 21.5 50.5t52.5 21.5h82h1042h463v-242h-1419v-272h1345q31 0 51 -21q23 -23 23 -53v-47v-563q0 -33 -23 -52q-18 -23 -51 -22h-1513q-31 0 -54 22q-4 4 -9 23.5t-11 40.5zM242 240h1177v274h-1177v-274z" />
<glyph unicode="7" horiz-adv-x="1763" d="M0 1028v242h1559l-1082 -1272h-323l874 1030h-1028z" />
<glyph unicode="8" d="M0 72v489q0 31 21.5 52.5t52.5 21.5q-31 0 -52.5 21.5t-21.5 52.5v489q0 29 21.5 50.5t52.5 21.5h43h1425h45q31 0 52.5 -21.5t21.5 -50.5v-489q0 -31 -21.5 -52.5t-52.5 -21.5q31 0 52.5 -21.5t21.5 -52.5v-489q0 -31 -21.5 -52.5t-52.5 -21.5h-96h-1323h-94 q-31 0 -52.5 21.5t-21.5 52.5zM242 240h1177v274h-1177v-274zM242 756h1177v272h-1177v-272z" />
<glyph unicode="9" d="M0 -2v242h1419v274h-1345q-29 0 -54 21q-20 25 -20 53v47v563q0 27 20 51q25 20 54 21h1513q31 0 51 -21q6 -6 11.5 -25.5t11.5 -37.5v-37v-997v-80q0 -31 -21.5 -52.5t-52.5 -21.5h-84h-1042h-461zM242 756h1177v272h-1177v-272z" />
<glyph unicode=":" horiz-adv-x="839" d="M0 -4v244h309l-309 299v327l635 -626v-244h-635z" />
<glyph unicode=";" horiz-adv-x="491" d="M0 0v1286h244v-1286h-244z" />
<glyph unicode="?" horiz-adv-x="884" d="M0 643v643h412q66 -74 118 -172q45 -84 82 -202.5t37 -268.5q0 -152 -37 -269.5t-82 -201.5q-53 -98 -118 -172h-295q80 74 143 172q53 84 99.5 202t46.5 269q0 154 -47.5 274.5t-104.5 204.5l-10 8v-487h-244z" />
<glyph unicode="A" horiz-adv-x="2158" d="M0 -2v518h1188l971 -518h-517l-516 274h-882v-274h-244zM0 758v518h244v-275h882l516 275h517l-971 -518h-1188z" />
<glyph unicode="B" horiz-adv-x="2193" d="M0 420h326l151 -178h1077l152 178h326l-359 -422h-1315zM0 854l358 422h1315l359 -422h-326l-152 180h-1077l-151 -180h-326zM588 516v242h856v-242h-856z" />
<glyph unicode="C" horiz-adv-x="1318" d="M0 446v830h244v-830h-244zM440 446v383h244v-383h-244zM881 -2v831h243v-831h-243z" />
<glyph unicode="D" horiz-adv-x="1540" d="M0 1034l205 242h1360l-1086 -1278h-325l440 518h-518l205 242h518l233 276h-1032z" />
<glyph unicode="E" horiz-adv-x="2019" d="M0 1276h293l479 -977l479 977h684v-242h-147v-1036h-242v1036h-119l-507 -1036h-293z" />
<glyph unicode="F" horiz-adv-x="2099" d="M0 -2v907h244q48 -3 105 -3q28 0 59 1q78 2 185 9.5t236 25.5v338h244v-297q201 41 419 110.5t437 186.5v-242q-203 -106 -421 -187t-435 -122v-483h856v-244h-1929zM244 242h585v448q-127 -16 -233.5 -21t-183.5 -7q-31 -1 -60 -1q-58 0 -108 3v-422z" />
<glyph unicode="G" horiz-adv-x="1929" d="M0 -2v1278h244v-1034h803l436 792h-703v-96h-243v338h1353l-702 -1278h-1188z" />
<glyph unicode="H" horiz-adv-x="2142" d="M0 -2v244h2071v-244h-2071zM0 1034v242h2071v-242h-2071zM352 516v242h1366v-242h-1366z" />
<glyph unicode="I" horiz-adv-x="927" d="M0 913l340 363h342v-1278h-244v1032l-278 -297z" />
<glyph unicode="J" horiz-adv-x="1902" d="M0 -2v244h1061l252 501q-109 -53 -221.5 -91t-225 -63.5t-220 -41t-204.5 -23.5q-141 -12 -278 -12q-83 0 -164 4v244q56 -2 112 -2q238 0 470 41q123 20 255 57t262 93.5t253 137t225 189.5h283q-2 -4 -31 -60.5t-74 -146.5t-102.5 -204.5t-116.5 -233.5 q-141 -279 -315 -633h-1221z" />
<glyph unicode="K" horiz-adv-x="2164" d="M0 -2v244h1673v792h-1673v242h1843q31 0 52.5 -21.5t21.5 -52.5v-1130q0 -31 -21.5 -52.5t-52.5 -21.5h-1843z" />
<glyph unicode="L" horiz-adv-x="1445" d="M0 569l141 217l815 -532v1022h244v-1278h-326z" />
<glyph unicode="M" horiz-adv-x="1239" d="M0 -2l627 1278h399q29 0 50.5 -21.5t21.5 -52.5v-270h-242v102h-55l-387 -792h772l-205 -244h-981z" />
<glyph unicode="N" horiz-adv-x="1923" d="M0 637q0 150 36 267.5t81 201.5q53 98 119 170h294q-80 -72 -143 -170q-53 -84 -98 -202t-45 -267q0 -154 47 -273.5t102 -203.5l545 1116h295l627 -1278h-295l-480 979l-479 -979h-370q-66 74 -119 172q-45 84 -81 200.5t-36 266.5z" />
<glyph unicode="O" horiz-adv-x="2041" d="M0 246l504 1030h895l512 -1043l-117 -235h-1673zM291 242h1321l-387 792h-545z" />
<glyph unicode="P" horiz-adv-x="1478" d="M0 637q0 150 36 267.5t81 201.5q53 98 119 170h368q31 0 52.5 -21.5t21.5 -52.5v-194h-244v90h-53q-53 -84 -95 -199t-42 -262q0 -119 29.5 -218.5t70.5 -176.5h645v1034h244v-1278h-997q-66 74 -119 172q-45 84 -81 200.5t-36 266.5z" />
<glyph unicode="Q" horiz-adv-x="1777" d="M0 72v1130q0 31 21.5 52.5t52.5 21.5h1511q31 0 52.5 -21.5t21.5 -52.5v-436h-242v268h-1173v-792h864l-207 -244h-827q-31 0 -52.5 21.5t-21.5 52.5z" />
<glyph unicode="R" horiz-adv-x="1540" d="M0 1034l205 242h1360l-1086 -1278h-325l878 1036h-1032z" />
<glyph unicode="S" horiz-adv-x="2027" d="M0 354l82 226l977 -355l-82 -227zM371 1276h325l842 -991v991h244v-1278h-326z" />
<glyph unicode="T" horiz-adv-x="1900" d="M0 637h326l422 -496v1135h243v-1135l420 496h326l-543 -639h-651z" />
<glyph unicode="U" horiz-adv-x="2058" d="M0 72v1204h244v-1034h1321v792h-445l-239 -282h-326l446 524h734q31 0 52 -21.5t21 -52.5v-1130q0 -31 -21.5 -52.5t-51.5 -21.5h-1661q-31 0 -52.5 21.5t-21.5 52.5z" />
<glyph unicode="V" horiz-adv-x="1495" d="M0 1276h326l338 -397l340 397h325l-543 -639v-639h-243v639z" />
<glyph unicode="W" horiz-adv-x="2191" d="M0 72v1130q0 31 21.5 52.5t52.5 21.5h1794q31 0 52.5 -21.5t21.5 -52.5v-1130q0 -31 -22 -52.5t-52 -21.5h-1794q-31 0 -52.5 21.5t-21.5 52.5zM244 242h1456v792h-1456v-792z" />
<glyph unicode="X" horiz-adv-x="1697" d="M0 139l657 1139h306l655 -1135l-219 -145h-1186zM352 242h905l-452 786z" />
<glyph unicode="Y" horiz-adv-x="1738" d="M1 1208q-1 7 -1 13q0 10 3 19q5 15 21.5 25.5t47.5 10.5h614l248 -504h-293l-182 369h-135l505 -1032l572 1167h293l-625 -1278h-479l-580 1180q-6 14 -9 30z" />
<glyph unicode="Z" horiz-adv-x="1894" d="M0 61v314h305v-133h1100v536h-674l-233 -217h-357l494 459h770v256h244v-1278h-1575q-33 0 -53.5 19.5t-20.5 43.5z" />
<glyph unicode="a" horiz-adv-x="2140" d="M0 -2v518h1188l971 -518h-517l-516 274h-882v-274h-244zM0 758v518h244v-275h882l516 275h517l-971 -518h-1188z" />
<glyph unicode="b" horiz-adv-x="2193" d="M0 420h326l151 -178h1077l152 178h326l-359 -422h-1315zM0 854l358 422h1315l359 -422h-326l-152 180h-1077l-151 -180h-326zM588 516v242h856v-242h-856z" />
<glyph unicode="c" horiz-adv-x="1318" d="M0 446v830h244v-830h-244zM440 446v383h244v-383h-244zM881 -2v831h243v-831h-243z" />
<glyph unicode="d" horiz-adv-x="1540" d="M0 1034l205 242h1360l-1086 -1278h-325l440 518h-518l205 242h518l233 276h-1032z" />
<glyph unicode="e" horiz-adv-x="2035" d="M0 1276h293l479 -977l479 977h684v-242h-147v-1036h-242v1036h-119l-507 -1036h-293z" />
<glyph unicode="f" horiz-adv-x="2099" d="M0 -2v907h244q48 -3 105 -3q28 0 59 1q78 2 185 9.5t236 25.5v338h244v-297q201 41 419 110.5t437 186.5v-242q-203 -106 -421 -187t-435 -122v-483h856v-244h-1929zM244 242h585v448q-127 -16 -233.5 -21t-183.5 -7q-31 -1 -60 -1q-57 0 -108 3v-422z" />
<glyph unicode="g" horiz-adv-x="1929" d="M0 -2v1278h244v-1034h803l436 792h-703v-96h-243v338h1353l-702 -1278h-1188z" />
<glyph unicode="h" horiz-adv-x="2142" d="M0 -2v244h2071v-244h-2071zM0 1034v242h2071v-242h-2071zM352 516v242h1366v-242h-1366z" />
<glyph unicode="i" horiz-adv-x="927" d="M0 913l340 363h342v-1278h-244v1032l-278 -297z" />
<glyph unicode="j" horiz-adv-x="1902" d="M0 -2v244h1061l252 501q-109 -53 -221.5 -91t-225 -63.5t-220 -41t-204.5 -23.5q-141 -12 -278 -12q-83 0 -164 4v244q56 -2 112 -2q238 0 470 41q123 20 255 57t262 93.5t253 137t225 189.5h283q-2 -4 -31 -60.5t-74 -146.5t-102.5 -204.5t-116.5 -233.5 q-141 -279 -315 -633h-1221z" />
<glyph unicode="k" horiz-adv-x="2164" d="M0 -2v244h1673v792h-1673v242h1843q31 0 52.5 -21.5t21.5 -52.5v-1130q0 -31 -21.5 -52.5t-52.5 -21.5h-1843z" />
<glyph unicode="l" horiz-adv-x="1445" d="M0 569l141 217l815 -532v1022h244v-1278h-326z" />
<glyph unicode="m" horiz-adv-x="1363" d="M0 -2l627 1278h399q29 0 50.5 -21.5t21.5 -52.5v-270h-242v102h-55l-387 -792h772l-205 -244h-981z" />
<glyph unicode="n" horiz-adv-x="1923" d="M0 637q0 150 36 267.5t81 201.5q53 98 119 170h294q-80 -72 -143 -170q-53 -84 -98 -202t-45 -267q0 -154 47 -273.5t102 -203.5l545 1116h295l627 -1278h-295l-480 979l-479 -979h-370q-66 74 -119 172q-45 84 -81 200.5t-36 266.5z" />
<glyph unicode="o" horiz-adv-x="1990" d="M0 246l504 1030h895l512 -1043l-117 -235h-1673zM291 242h1321l-387 792h-545z" />
<glyph unicode="p" horiz-adv-x="1478" d="M0 637q0 150 36 267.5t81 201.5q53 98 119 170h368q31 0 52.5 -21.5t21.5 -52.5v-194h-244v90h-53q-53 -84 -95 -199t-42 -262q0 -119 29.5 -218.5t70.5 -176.5h645v1034h244v-1278h-997q-66 74 -119 172q-45 84 -81 200.5t-36 266.5z" />
<glyph unicode="q" horiz-adv-x="1755" d="M0 72v1130q0 31 21.5 52.5t52.5 21.5h1511q31 0 52.5 -21.5t21.5 -52.5v-436h-242v268h-1173v-792h864l-207 -244h-827q-31 0 -52.5 21.5t-21.5 52.5z" />
<glyph unicode="r" horiz-adv-x="1540" d="M0 1034l205 242h1360l-1086 -1278h-325l878 1036h-1032z" />
<glyph unicode="s" horiz-adv-x="2027" d="M0 354l82 226l977 -355l-82 -227zM371 1276h325l842 -991v991h244v-1278h-326z" />
<glyph unicode="t" horiz-adv-x="1900" d="M0 637h326l422 -496v1135h243v-1135l420 496h326l-543 -639h-651z" />
<glyph unicode="u" horiz-adv-x="2058" d="M0 72v1204h244v-1034h1321v792h-445l-239 -282h-326l446 524h734q31 0 52 -21.5t21 -52.5v-1130q0 -31 -21.5 -52.5t-51.5 -21.5h-1661q-31 0 -52.5 21.5t-21.5 52.5z" />
<glyph unicode="v" horiz-adv-x="1353" d="M0 1276h326l338 -397l340 397h325l-543 -639v-639h-243v639z" />
<glyph unicode="w" horiz-adv-x="2191" d="M0 72v1130q0 31 21.5 52.5t52.5 21.5h1794q31 0 52.5 -21.5t21.5 -52.5v-1130q0 -31 -22 -52.5t-52 -21.5h-1794q-31 0 -52.5 21.5t-21.5 52.5zM244 242h1456v792h-1456v-792z" />
<glyph unicode="x" horiz-adv-x="1667" d="M0 139l657 1139h306l655 -1135l-219 -145h-1186zM352 242h905l-452 786z" />
<glyph unicode="y" horiz-adv-x="1738" d="M1 1208q-1 7 -1 13q0 10 3 19q5 15 21.5 25.5t47.5 10.5h614l248 -504h-293l-182 369h-135l505 -1032l572 1167h293l-625 -1278h-479l-580 1180q-6 14 -9 30z" />
<glyph unicode="z" horiz-adv-x="1894" d="M0 61v314h305v-133h1100v536h-674l-233 -217h-357l494 459h770v256h244v-1278h-1575q-33 0 -53.5 19.5t-20.5 43.5z" />
<glyph unicode="&#xa9;" horiz-adv-x="1837" d="M0 37l508 1034h-279v244h1362v-1278h-243v1034h-547l-508 -1034h-293z" />
<glyph unicode="&#xad;" horiz-adv-x="991" d="M0 1034l2 242l713 2v-244h-715z" />
<glyph unicode="&#xb0;" horiz-adv-x="1583" d="M0 -2l379 774h715v504h241v-1278h-241v530h-541l-260 -530h-293z" />
<glyph unicode="&#xc5;" horiz-adv-x="2058" d="M0 72v456h244v-286h1323v286h-807v244h807v262h-1323v-262h-244v430q0 31 21.5 52.5t52.5 21.5h1661q31 0 52 -21.5t21 -52.5v-1130q0 -31 -21.5 -52.5t-51.5 -21.5h-1661q-31 0 -52.5 21.5t-21.5 52.5z" />
<glyph unicode="&#xc7;" horiz-adv-x="2109" d="M0 -2v244h1632l-387 792h-1245v242h1419l627 -1278h-2046z" />
<glyph unicode="&#xd8;" horiz-adv-x="1439" d="M0 72v1130q0 31 21.5 52.5t52.5 21.5h440v-242h-270v-792h270v-244h-440q-31 0 -52.5 21.5t-21.5 52.5zM678 -2v244h270v792h-270v242h440q31 0 52.5 -21.5t21.5 -52.5v-1130q0 -31 -21.5 -52.5t-52.5 -21.5h-440z" />
<glyph unicode="&#xdf;" horiz-adv-x="2275" d="M0 -2v321h244v-321h-244zM0 954v322h244v-322h-244zM440 -2v321h242v-77h752l395 792h-1147v-80h-242v322h1792q-2 -4 -30.5 -60.5t-73.5 -146.5t-102.5 -204.5t-116.5 -233.5q-141 -279 -316 -633h-1153z" />
<glyph unicode="&#xe5;" horiz-adv-x="2058" d="M0 72v456h244v-286h1323v286h-807v244h807v262h-1323v-262h-244v430q0 31 21.5 52.5t52.5 21.5h1661q31 0 52 -21.5t21 -52.5v-1130q0 -31 -21.5 -52.5t-51.5 -21.5h-1661q-31 0 -52.5 21.5t-21.5 52.5z" />
<glyph unicode="&#xe7;" horiz-adv-x="2109" d="M0 -2v244h1632l-387 792h-1245v242h1419l627 -1278h-2046z" />
<glyph unicode="&#xf8;" horiz-adv-x="2154" d="M0 637q100 25 193.5 88t167 150.5t122.5 190.5t66 210h985q14 -106 64.5 -209.5t124 -191t166.5 -150.5t194 -88l-66 -262q-106 37 -211.5 98.5t-197.5 146.5t-165 189t-112 225h-579q-41 -121 -113 -225t-164 -189t-197.5 -146.5t-211.5 -98.5zM98 242h1887l-62 -244 h-1763z" />
<glyph unicode="&#x2000;" horiz-adv-x="748" />
<glyph unicode="&#x2001;" horiz-adv-x="1497" />
<glyph unicode="&#x2002;" horiz-adv-x="748" />
<glyph unicode="&#x2003;" horiz-adv-x="1497" />
<glyph unicode="&#x2004;" horiz-adv-x="499" />
<glyph unicode="&#x2005;" horiz-adv-x="374" />
<glyph unicode="&#x2006;" horiz-adv-x="249" />
<glyph unicode="&#x2007;" horiz-adv-x="249" />
<glyph unicode="&#x2008;" horiz-adv-x="187" />
<glyph unicode="&#x2009;" horiz-adv-x="299" />
<glyph unicode="&#x200a;" horiz-adv-x="83" />
<glyph unicode="&#x2010;" horiz-adv-x="991" d="M0 1034l2 242l713 2v-244h-715z" />
<glyph unicode="&#x2011;" horiz-adv-x="991" d="M0 1034l2 242l713 2v-244h-715z" />
<glyph unicode="&#x2012;" horiz-adv-x="991" d="M0 1034l2 242l713 2v-244h-715z" />
<glyph unicode="&#x2013;" horiz-adv-x="1300" d="M0 1034l3 242l1021 2v-244h-1024z" />
<glyph unicode="&#x2014;" horiz-adv-x="2324" d="M0 1034l6 242l2042 2v-244h-2048z" />
<glyph unicode="&#x2018;" horiz-adv-x="477" d="M0 831v580h307l78 -80h-174v-713z" />
<glyph unicode="&#x2019;" horiz-adv-x="634" d="M0 1331l78 80h307v-580l-213 -213v713h-172z" />
<glyph unicode="&#x201c;" horiz-adv-x="1343" d="M0 1454h328l514 -520v520h245v-643h-450z" />
<glyph unicode="&#x201d;" horiz-adv-x="1153" d="M0 811v643h244v-520l516 520h327l-636 -643h-451z" />
<glyph unicode="&#x202f;" horiz-adv-x="299" />
<glyph unicode="&#x205f;" horiz-adv-x="374" />
<glyph unicode="&#xe000;" horiz-adv-x="1280" d="M0 0v1280h1280v-1280h-1280z" />
</font>
</defs>
</svg>
