<?xml version="1.0" standalone="no"?>
<!DOCTYPE svg PUBLIC "-//W3C//DTD SVG 1.1//EN" "http://www.w3.org/Graphics/SVG/1.1/DTD/svg11.dtd" >
<svg xmlns="http://www.w3.org/2000/svg">
<metadata></metadata>
<defs>
<font id="sf_distant_galaxy_outlineRg" horiz-adv-x="1536" >
<font-face units-per-em="2048" ascent="1638" descent="-410" />
<missing-glyph horiz-adv-x="768" />
<glyph horiz-adv-x="2048" />
<glyph horiz-adv-x="2048" />
<glyph unicode="&#xd;" horiz-adv-x="768" />
<glyph unicode=" "  horiz-adv-x="768" />
<glyph unicode="&#x09;" horiz-adv-x="768" />
<glyph unicode="&#xa0;" horiz-adv-x="768" />
<glyph unicode="!" horiz-adv-x="426" d="M24 1382h379l-38 -972h-304zM26 171q0 77 55.5 132t131.5 55q77 0 132.5 -55t55.5 -132t-55.5 -132.5t-132.5 -55.5t-132 55.5t-55 132.5zM77 171q0 -55 41 -96t95 -41q55 0 96 41t41 96t-41 95.5t-96 40.5t-95.5 -41t-40.5 -95zM79 1331l30 -870h208l31 870h-269z" />
<glyph unicode="&#x22;" horiz-adv-x="853" d="M26 1195q0 75 56 131t131 56t131.5 -56t56.5 -131q0 -99 -63 -212q-70 -123 -159 -145q-5 -2 -42 -9l54 181q-72 12 -118.5 63.5t-46.5 121.5zM77 1195q0 -135 182 -137l-44 -145q53 41 94 127.5t41 154.5q0 55 -41 95.5t-96 40.5t-95.5 -41t-40.5 -95zM452 1195 q0 75 56.5 131t131.5 56t131.5 -56t56.5 -131q0 -99 -63 -212q-70 -123 -159 -145q-5 -2 -43 -9l55 181q-72 12 -119 63.5t-47 121.5zM503 1195q0 -135 183 -137l-44 -145q53 41 94 127.5t41 154.5q0 55 -41 95.5t-96 40.5t-96 -41t-41 -95z" />
<glyph unicode="#" horiz-adv-x="1363" d="M22 410l50 290h213l32 179h-213l50 290h215l39 213h290l-39 -213h179l39 213h290l-39 -213h213l-49 -290h-213l-33 -179h214l-50 -290h-215l-39 -214h-290l39 214h-179l-40 -214h-290l40 214h-214zM84 461h213l-39 -214h187l40 214h281l-39 -214h188l39 214h212l32 188 h-213l49 281h214l32 188h-213l39 213h-188l-39 -213h-282l40 213h-188l-39 -213h-212l-32 -188h213l-50 -281h-213zM515 649l50 281h283l-49 -281h-284zM577 700h177l33 179h-178z" />
<glyph unicode="$" horiz-adv-x="1450" d="M26 -17v461h524q17 0 17 24q-77 55 -229 167q-142 108 -142 316q0 147 101 266q97 114 241 153v183h375v-171h512v-460h-560q-17 0 -17 -23l246 -186q160 -121 160 -324q0 -142 -99.5 -250t-241.5 -144v-183h-375v171h-512zM77 34h512v-171h273v173q142 29 235 118 q106 101 106 235q0 123 -83 225q-56 70 -186 161q-41 26 -118 83q-19 17 -19 41q0 29 19.5 51.5t48.5 22.5h509v358h-512v171h-273v-173q-143 -31 -239 -131q-102 -106 -103 -247q0 -145 96 -251q53 -58 179 -139q96 -60 96 -93q0 -29 -19.5 -52t-48.5 -23h-473v-359z" />
<glyph unicode="%" horiz-adv-x="1727" d="M26 1024q0 143 107.5 250.5t250.5 107.5t250.5 -107.5t107.5 -250.5t-107.5 -250.5t-250.5 -107.5t-250.5 107.5t-107.5 250.5zM77 1024q0 -121 93 -214t214 -93t214 93t93 214t-93 214t-214 93t-214 -93t-93 -214zM222 1024q0 65 48.5 113.5t113.5 48.5t113.5 -48.5 t48.5 -113.5t-48.5 -113.5t-113.5 -48.5t-113.5 48.5t-48.5 113.5zM273 1024q0 -44 33.5 -77.5t77.5 -33.5t77.5 33.5t33.5 77.5t-33.5 77.5t-77.5 33.5t-77.5 -33.5t-33.5 -77.5zM447 89l480 1316l353 -128l-480 -1316zM512 119l258 -93l445 1220l-258 94zM985 341 q0 143 107.5 251t250.5 108t251 -108t108 -251t-107.5 -250.5t-251.5 -107.5q-143 0 -250.5 107.5t-107.5 250.5zM1036 341q0 -121 93 -214t214 -93t214 93t93 214t-93 214.5t-214 93.5t-214 -93t-93 -215zM1181 341q0 65 48.5 113.5t113.5 48.5t113.5 -48.5t48.5 -113.5 t-48.5 -113.5t-113.5 -48.5t-113.5 48.5t-48.5 113.5zM1232 341q0 -44 33.5 -77.5t77.5 -33.5t77.5 33.5t33.5 77.5t-33 77.5t-78 33.5q-44 0 -77.5 -33t-33.5 -78z" />
<glyph unicode="&#x26;" horiz-adv-x="1450" d="M26 425q0 143 80 258q-80 114 -80 251q0 184 129.5 316t313.5 132h956v-426h-870q-34 0 -34 -43q0 -34 34 -34h273v-393h-273q-34 0 -34 -39q0 -38 34 -37h402v256h468v-683h-956q-181 0 -312 130.5t-131 311.5zM77 425q0 -159 117 -275t275 -116h905v580h-365v-256h-454 q-34 0 -60 26.5t-26 62.5t25 63.5t61 27.5h222v290h-222q-34 0 -60 25.5t-26 59.5q0 38 25 66t61 28h819v324h-905q-164 0 -278 -117t-114 -280q0 -128 94 -251q-94 -123 -94 -258z" />
<glyph unicode="'" horiz-adv-x="426" d="M26 1195q0 75 56 131t131 56t131.5 -56t56.5 -131q0 -99 -63 -212q-70 -123 -159 -145q-5 -2 -42 -9l54 181q-72 12 -118.5 63.5t-46.5 121.5zM77 1195q0 -135 182 -137l-44 -145q53 41 94 127.5t41 154.5q0 55 -41 95.5t-96 40.5t-95.5 -41t-40.5 -95z" />
<glyph unicode="(" horiz-adv-x="597" d="M26 683q0 486 264 870h290q-179 -428 -179 -870q0 -444 179 -871h-290q-265 382 -264 871zM77 683q0 -463 240 -820h186q-154 387 -153 820q0 432 153 819h-186q-241 -357 -240 -819z" />
<glyph unicode=")" horiz-adv-x="597" d="M17 -188q179 428 179 871q0 442 -179 870h290q265 -384 265 -870q0 -478 -265 -871h-290zM94 -137h186q241 357 241 820q0 461 -241 819h-186q154 -387 153 -819q0 -432 -153 -820z" />
<glyph unicode="*" horiz-adv-x="778" d="M20 913l130 77l-130 77l120 206l130 -77v152h239v-152l129 77l120 -206l-130 -77l130 -77l-120 -206l-129 76v-152h-239v152l-130 -76zM89 896l68 -118l164 94v-189h136v189l164 -94l68 118l-163 94l163 94l-68 117l-164 -93v189h-136v-189l-164 93l-68 -117l164 -94z " />
<glyph unicode="+" horiz-adv-x="768" d="M26 538v290h213v213h290v-213h213v-290h-213v-214h-290v214h-213zM77 589h213v-214h188v214h213v188h-213v213h-188v-213h-213v-188z" />
<glyph unicode="," horiz-adv-x="426" d="M26 171q0 75 56 131t131 56t131.5 -56t56.5 -131q0 -99 -63 -212q-70 -123 -159 -145q-5 -2 -42 -9l54 181q-72 12 -118.5 63.5t-46.5 121.5zM77 171q0 -135 182 -137l-44 -145q53 41 94 127.5t41 154.5q0 55 -41 95.5t-96 40.5t-95.5 -41t-40.5 -95z" />
<glyph unicode="-" horiz-adv-x="768" d="M26 538v290h716v-290h-716zM77 589h614v188h-614v-188z" />
<glyph unicode="." horiz-adv-x="426" d="M26 171q0 77 55.5 132t131.5 55q77 0 132.5 -55t55.5 -132t-55.5 -132.5t-132.5 -55.5t-132 55.5t-55 132.5zM77 171q0 -55 41 -96t95 -41q55 0 96 41t41 96t-41 95.5t-96 40.5t-95.5 -41t-40.5 -95z" />
<glyph unicode="/" horiz-adv-x="904" d="M-22 -72l595 1637l354 -128l-596 -1637zM43 -41l257 -94l562 1541l-258 94z" />
<glyph unicode="0" d="M26 683q0 294 227 500q218 200 515 199q297 0 515 -199q227 -206 227 -500t-227 -500q-218 -200 -515 -200t-515 200q-227 207 -227 500zM77 683q0 -273 211 -463q205 -186 480 -186t480 186q211 190 211 463t-211 462q-205 186 -480 186t-480 -186q-212 -189 -211 -462z M469 683q0 118 90 204t209 86q118 0 208.5 -86t90.5 -204t-90 -204t-209 -86t-209 85t-90 205zM521 683q0 -97 75 -168t172 -71t172 71t75 168q0 96 -75 167.5t-172 71.5t-172 -71t-75 -168z" />
<glyph unicode="1" horiz-adv-x="733" d="M17 956l184 426h507v-1399h-512v973h-179zM96 1007h151v-973h410v1297h-421z" />
<glyph unicode="2" d="M26 -17v449q0 176 134 311.5t309 135.5h512q34 0 34 34q0 43 -34 43h-870v426h956q177 0 310 -135.5t133 -312.5q0 -176 -134 -312t-309 -136h-512q-34 0 -34 -76h989v-427h-1484zM77 34h1382v324h-990v57q0 123 86 123h512q155 0 273.5 120t118.5 276q0 157 -118.5 277 t-273.5 120h-905v-324h819q36 0 61 -28t25 -66q0 -34 -26 -59.5t-60 -25.5h-512q-155 0 -273.5 -120.5t-118.5 -275.5v-398z" />
<glyph unicode="3" horiz-adv-x="1450" d="M26 -17v427h870q34 0 34 37q0 39 -34 39h-529v393h529q34 0 34 34q0 43 -34 43h-870v426h955q184 0 314 -132t130 -316q0 -137 -80 -251q80 -115 80 -258q0 -181 -131.5 -311.5t-312.5 -130.5h-955zM77 34h904q159 0 276 116t117 275q0 135 -94 258q94 123 94 251 q0 164 -114.5 280.5t-278.5 116.5h-904v-324h819q36 0 60.5 -28t24.5 -66q0 -34 -25.5 -59.5t-59.5 -25.5h-478v-290h478q36 0 60.5 -27.5t24.5 -63.5t-25.5 -62.5t-59.5 -26.5h-819v-324z" />
<glyph unicode="4" d="M22 239l176 973h531l-94 -512h278v682h512v-682h85v-461h-85v-256h-512v256h-891zM84 290h880v-256h410v256h85v359h-85v682h-410v-682h-391l94 512h-425z" />
<glyph unicode="5" d="M26 -17v427h955q34 0 34 42q0 34 -34 34h-955v896h1399v-426h-904v-77h546q176 0 309.5 -135.5t133.5 -311.5q0 -177 -133 -313t-310 -136h-1041zM77 34h990q157 0 274.5 120.5t117.5 277.5q0 155 -118.5 275.5t-273.5 120.5h-598v179h905v324h-1297v-793h904 q34 0 60 -26t26 -60q0 -38 -25 -66t-61 -28h-904v-324z" />
<glyph unicode="6" d="M26 430v509q0 176 134 309.5t309 133.5h956v-426h-870q-34 0 -34 -34q0 -43 34 -43h512q176 0 309.5 -135.5t133.5 -311.5q0 -177 -133 -313t-310 -136h-598q-176 0 -309.5 135t-133.5 312zM77 430q0 -155 118.5 -275.5t273.5 -120.5h598q157 0 274.5 120.5t117.5 277.5 q0 155 -118.5 275.5t-273.5 120.5h-512q-36 0 -61 28t-25 66q0 34 26 59.5t60 25.5h819v324h-905q-154 0 -273 -119.5t-119 -272.5v-509zM469 452q0 34 26 60t60 26h426q34 0 60 -26t26 -60q0 -38 -25 -66t-61 -28h-426q-36 0 -61 28.5t-25 65.5zM521 452q0 -43 34 -42h426 q34 -1 34 42q0 34 -34 34h-426q-34 0 -34 -34z" />
<glyph unicode="7" d="M10 -17l645 973h-629v426h1500l-929 -1399h-587zM77 1007h674l-645 -973h464l860 1297h-1353v-324z" />
<glyph unicode="8" d="M26 398q0 181 141 310q-108 121 -107 277q0 166 140 285q135 113 303 112h530q172 0 305 -114q138 -119 138 -288q0 -150 -109 -272q143 -129 143 -312q0 -169 -135.5 -291t-307.5 -122h-598q-172 0 -305 119q-138 125 -138 296zM77 398q0 -150 123 -260 q118 -104 269 -104h598q150 0 271 107t121 255q0 176 -169 309q135 131 135 275q0 148 -125 252q-118 99 -267 99h-530q-148 0 -266 -97q-126 -104 -126 -249q0 -150 131 -280q-166 -133 -165 -307zM469 444q0 38 25 66t61 28h426q36 0 61 -28t25 -66q0 -34 -26 -60t-60 -26 h-426q-34 0 -60 26t-26 60zM503 913q0 38 25 66t61 28h358q36 0 61 -28t25 -66q0 -34 -26 -59.5t-60 -25.5h-358q-34 0 -60 25.5t-26 59.5zM521 444q0 -34 34 -34h426q34 0 34 34q0 43 -34 42h-426q-34 0 -34 -42zM555 913q0 -34 34 -34h358q34 0 34 34q0 43 -34 43h-358 q-34 0 -34 -43z" />
<glyph unicode="9" d="M26 934q0 177 133 312.5t310 135.5h598q176 0 309.5 -134.5t133.5 -312.5v-508q0 -176 -134 -310t-309 -134h-956v427h870q34 0 34 34q0 43 -34 42h-512q-176 0 -309.5 136t-133.5 312zM77 934q0 -155 118.5 -275.5t273.5 -120.5h512q36 0 61 -28.5t25 -65.5 q0 -34 -26 -60t-60 -26h-819v-324h905q154 0 273 119.5t119 273.5v508q0 155 -118.5 275.5t-273.5 120.5h-598q-157 0 -274.5 -120t-117.5 -277zM469 913q0 38 25 66t61 28h426q36 0 61 -28t25 -66q0 -34 -26 -59.5t-60 -25.5h-426q-34 0 -60 25.5t-26 59.5zM521 913 q0 -34 34 -34h426q34 0 34 34q0 43 -34 43h-426q-34 0 -34 -43z" />
<glyph unicode=":" horiz-adv-x="426" d="M26 171q0 77 55.5 132t131.5 55q77 0 132.5 -55t55.5 -132t-55.5 -132.5t-132.5 -55.5t-132 55.5t-55 132.5zM26 853q0 77 55.5 132.5t131.5 55.5q77 0 132.5 -55.5t55.5 -132.5t-55.5 -132t-132.5 -55t-132 55.5t-55 131.5zM77 171q0 -55 41 -96t95 -41q55 0 96 41 t41 96t-41 95.5t-96 40.5t-95.5 -41t-40.5 -95zM77 853q0 -55 41 -95.5t95 -40.5q55 0 96 40.5t41 95.5t-41 96t-96 41t-95.5 -41t-40.5 -96z" />
<glyph unicode=";" horiz-adv-x="426" d="M26 171q0 75 56 131t131 56t131.5 -56t56.5 -131q0 -99 -63 -212q-70 -123 -159 -145q-5 -2 -42 -9l54 181q-72 12 -118.5 63.5t-46.5 121.5zM26 853q0 77 55.5 132.5t131.5 55.5q77 0 132.5 -55.5t55.5 -132.5t-55.5 -132t-132.5 -55t-132 55.5t-55 131.5zM77 171 q0 -135 182 -137l-44 -145q53 41 94 127.5t41 154.5q0 55 -41 95.5t-96 40.5t-95.5 -41t-40.5 -95zM77 853q0 -55 41 -95.5t95 -40.5q55 0 96 40.5t41 95.5t-41 96t-96 41t-95.5 -41t-40.5 -96z" />
<glyph unicode="&#x3c;" horiz-adv-x="597" d="M24 683l177 443h379l-177 -443l177 -444h-379zM79 683l157 -393h269l-157 393l157 392h-269z" />
<glyph unicode="=" horiz-adv-x="938" d="M26 367v290h887v-290h-887zM26 708v290h887v-290h-887zM77 418h785v188h-785v-188zM77 759h785v188h-785v-188z" />
<glyph unicode="&#x3e;" horiz-adv-x="597" d="M17 239l178 444l-178 443h379l177 -443l-177 -444h-379zM92 290h270l157 393l-157 392h-270l157 -392z" />
<glyph unicode="?" horiz-adv-x="1280" d="M26 171q0 77 55.5 132t131.5 55q77 0 132.5 -55t55.5 -132t-55.5 -132.5t-132.5 -55.5t-132 55.5t-55 132.5zM26 375v57q0 176 134 311.5t309 135.5h256q34 0 34 34q0 43 -34 43h-699v426h785q177 0 310 -135.5t133 -312.5q0 -176 -134 -312t-309 -136h-359 q-53 0 -51 -111h-375zM77 171q0 -55 41 -96t95 -41q55 0 96 41t41 96t-41 95.5t-96 40.5t-95.5 -41t-40.5 -95zM77 427h275q15 111 100 111h359q155 0 273.5 120.5t118.5 275.5t-118.5 276t-273.5 121h-734v-324h648q36 0 61 -28t25 -66q0 -34 -26 -59.5t-60 -25.5h-256 q-157 0 -274.5 -122t-117.5 -279z" />
<glyph unicode="@" horiz-adv-x="1245" d="M26 683q0 244 176.5 420.5t420.5 176.5q242 0 419.5 -177.5t177.5 -419.5q0 -244 -176.5 -421t-420.5 -177t-420.5 177t-176.5 421zM77 683q0 -224 161 -385t385 -161q222 0 384 162t162 384t-162 384t-384 162t-384 -162t-162 -384zM179 683q0 179 132.5 311t311.5 132 t311.5 -132t132.5 -311t-132.5 -311.5t-311.5 -132.5t-311.5 132t-132.5 312zM230 683q0 -159 117 -276t276 -117t275.5 117t116.5 276q0 157 -117.5 274.5t-274.5 117.5q-159 0 -276 -117t-117 -275zM304 410l145 546h348l142 -546h-241l-15 63h-122l-17 -63h-240zM372 461 h135l17 63h200l15 -63h135l-118 444h-266zM538 572l85 333l85 -333h-170zM602 623h41l-20 77z" />
<glyph unicode="A" horiz-adv-x="1621" d="M20 -17l367 1399h847l367 -1399h-565l-44 171h-362l-45 -171h-565zM85 34h459l45 171h444l44 -171h459l-343 1297h-765zM664 478l147 568l146 -568h-293zM729 529h164l-82 312z" />
<glyph unicode="B" d="M26 -17v1399h904q189 0 336 -112q159 -123 159 -306q0 -130 -77 -239q162 -124 162 -327q0 -183 -160 -304q-147 -111 -335 -111h-989zM77 34h938q166 0 299 97q145 107 145 267q0 193 -184 317q99 123 99 249q0 162 -145 270q-131 97 -299 97h-853v-1297zM486 307v273 h393q55 0 95.5 -40.5t40.5 -95.5t-40.5 -96t-95.5 -41h-393zM486 785v273h376q55 0 95.5 -40.5t40.5 -95.5t-41 -96t-95 -41h-376zM538 358h341q34 0 59.5 26t25.5 60t-25.5 59.5t-59.5 25.5h-341v-171zM538 836h324q34 0 59.5 26t25.5 60t-25.5 59.5t-59.5 25.5h-324v-171z " />
<glyph unicode="C" horiz-adv-x="1365" d="M26 683q0 294 227 500q217 199 512 199h3h572v-460h-572q-97 0 -172 -71t-75 -168t75 -168t172 -71h572v-461h-572q-297 0 -515 200q-227 207 -227 500zM288 220q205 -186 480 -186h521v359h-521q-119 0 -209 85t-90 205q0 118 90.5 204t208.5 86h521v358h-521 q-275 0 -480 -186q-211 -190 -211 -459q0 -274 211 -466z" />
<glyph unicode="D" d="M26 -17v1399h742q297 0 515 -199q227 -206 227 -500t-227 -500q-218 -200 -515 -200h-742zM77 34h691q275 0 480 186q211 192 211 463t-211 462q-205 186 -480 186h-691v-1297zM486 393v580h282q119 0 209 -86t90 -204q0 -119 -90 -204.5t-209 -85.5h-282zM538 444h230 q97 0 172 71t75 168t-75 168t-172 71h-230v-478z" />
<glyph unicode="E" horiz-adv-x="1450" d="M26 -17v1399h1399v-460h-853v-43h512v-393h-512v-42h853v-461h-1399zM77 34h1297v359h-853v145h512v290h-512v145h853v358h-1297v-1297z" />
<glyph unicode="F" horiz-adv-x="1450" d="M26 -17v1399h1399v-460h-853v-43h512v-393h-512v-503h-546zM77 34h444v504h512v290h-512v145h853v358h-1297v-1297z" />
<glyph unicode="G" d="M26 683q0 294 227 500q217 199 512 199h3q283 0 522 -201l-336 -336q-89 77 -186 77t-172 -71t-75 -168t75 -168t172 -71h196v256h546v-717h-742q-297 0 -515 200q-227 207 -227 500zM77 683q0 -273 211 -463q205 -186 480 -186h691v615h-444v-256h-247q-119 0 -209 85 t-90 205q0 118 90 204t209 86q99 0 183 -60l264 265q-197 153 -444 153h-3q-275 0 -480 -186q-212 -191 -211 -462z" />
<glyph unicode="H" d="M26 -17v1399h546v-503h392v503h546v-1399h-546v503h-392v-503h-546zM77 34h444v504h494v-504h444v1297h-444v-503h-494v503h-444v-1297z" />
<glyph unicode="I" horiz-adv-x="597" d="M26 -17v1399h546v-1399h-546zM77 34h444v1297h-444v-1297z" />
<glyph unicode="J" horiz-adv-x="896" d="M22 102q59 -1 84 -1h15q254 0 254 155v1126h495v-1297q0 -290 -254 -387q-152 -56 -502 -56zM84 51l71 -358q304 0 441 53q223 86 223 339v1246h-392v-1075q0 -130 -116 -176q-69 -29 -209 -29h-18z" />
<glyph unicode="K" d="M26 -17v1399h546v-411l288 411h666l-509 -728l195 -195q15 -15 66 -15h232v-461h-375q-147 0 -312 138q-15 14 -251 248v-386h-546zM77 34h444v458l298 -296q164 -162 316 -162h324v359h-176q-80 0 -109 29l-222 225l475 684h-540l-366 -520v520h-444v-1297z" />
<glyph unicode="L" horiz-adv-x="1365" d="M26 -17v1399h546v-938h768v-461h-1314zM77 34h1212v359h-768v938h-444v-1297z" />
<glyph unicode="M" horiz-adv-x="1706" d="M26 -17v1399h537l290 -414l290 414h538v-1399h-546v389l-282 -401l-281 401v-389h-546zM77 34h444v502l332 -476l333 476v-502h444v1297h-459l-318 -452l-317 452h-459v-1297z" />
<glyph unicode="N" d="M26 -17v1399h25q273 0 504 -92q253 -102 409 -302v394h546v-1399h-544q-10 217 -96 375q-108 196 -298 221v-596h-546zM77 34h444v599q227 -12 360 -196q116 -160 133 -403h445v1297h-444v-507q-169 258 -397.5 380t-540.5 127v-1297z" />
<glyph unicode="O" d="M26 683q0 294 227 500q217 199 512 199h3q297 0 515 -199q227 -206 227 -500t-227 -500q-218 -200 -515 -200t-515 200q-227 207 -227 500zM77 683q0 -273 211 -463q205 -186 480 -186t480 184q211 192 211 465t-211 462q-205 186 -480 186t-480 -186 q-212 -191 -211 -462zM469 683q0 118 90 204t209 86q118 0 208.5 -86t90.5 -204t-90 -204t-209 -86t-209 85t-90 205zM521 683q0 -97 75 -168t172 -71t172 71t75 168q0 96 -75 167.5t-172 71.5t-172 -71t-75 -168z" />
<glyph unicode="P" d="M26 -17v768h853q34 0 59.5 25.5t25.5 59.5t-25.5 60t-59.5 26h-853v460h989q196 0 345.5 -149.5t149.5 -345.5t-149 -345t-346 -149h-443v-410h-546zM77 34h444v410h494q174 0 309 134.5t135 308.5t-134.5 309t-309.5 135h-938v-358h802q55 0 95.5 -41t40.5 -96 t-40.5 -95.5t-95.5 -40.5h-802v-666z" />
<glyph unicode="Q" horiz-adv-x="1621" d="M26 683q0 294 227 500q217 199 512 199h3q297 0 515 -199q227 -207 227 -500q0 -121 -42 -239h128v-461h-828q-297 0 -515 200q-227 207 -227 500zM288 220q205 -186 480 -186h777v359h-152q67 155 66 290q0 271 -211 462q-205 186 -480 186t-480 -186 q-211 -190 -211 -459q0 -274 211 -466zM469 683q0 118 90.5 204t208.5 86t208.5 -86t90.5 -204t-90 -204t-209 -86t-209 85t-90 205zM521 683q0 -97 75 -168t172 -71t172 71t75 168q0 96 -75 167.5t-172 71.5t-172 -71t-75 -168z" />
<glyph unicode="R" horiz-adv-x="1621" d="M26 -17v768h853q34 0 59.5 25.5t25.5 59.5t-25.5 60t-59.5 26h-853v460h989q196 0 345.5 -141.5t149.5 -335.5q0 -138 -78.5 -255.5t-204.5 -175.5q25 -30 60 -30h2h307v-461h-461q-147 0 -312 138q-17 14 -251 248v-386h-546zM77 34h444v458l298 -296q164 -162 316 -162 h410v359h-256q-79 0 -139 107q140 53 220 154q89 109 89 251q0 174 -134.5 300t-309.5 126h-938v-358h802q55 0 95.5 -41t40.5 -96t-40.5 -95.5t-95.5 -40.5h-802v-666z" />
<glyph unicode="S" horiz-adv-x="1450" d="M26 -17v461h524q17 0 17 24q-77 55 -229 167q-142 108 -142 316q0 174 135 302.5t309 128.5h785v-460h-560q-17 0 -17 -23l246 -186q160 -121 160 -324q0 -169 -137 -287.5t-308 -118.5h-783zM77 34h732q150 0 270 101q124 107 124 252q0 130 -89 234q-58 70 -194 164 q-38 22 -104 73q-19 17 -19 41q0 29 19.5 51.5t48.5 22.5h509v358h-734q-154 0 -273.5 -114t-119.5 -266q0 -147 96 -253q51 -56 179 -135q96 -61 96 -95q0 -29 -19.5 -52t-48.5 -23h-473v-359z" />
<glyph unicode="T" d="M26 922v460h1484v-460h-469v-939h-546v939h-469zM77 973h469v-939h444v939h469v358h-1382v-358z" />
<glyph unicode="U" d="M26 683v699h495v-699q0 -97 75 -168t172 -71t172 70.5t75 168.5v699h495v-699q0 -294 -227 -500q-218 -200 -515 -200t-515 200q-227 207 -227 500zM77 683q0 -273 211 -463q205 -186 480 -186t480 186q211 192 211 463v648h-392v-648q0 -118 -90.5 -204t-208.5 -86 q-119 0 -209 85t-90 205v648h-392v-648z" />
<glyph unicode="V" horiz-adv-x="1621" d="M20 1382h565l226 -860l225 860h565l-367 -1399h-847zM85 1331l343 -1297h765l343 1297h-459l-266 -1010l-267 1010h-459z" />
<glyph unicode="W" horiz-adv-x="2201" d="M20 1382h565l106 -406l106 406h608l105 -406l106 406h565l-367 -1399h-607l-106 406l-106 -406h-608zM85 1331l343 -1297h526l147 557l147 -557h525l343 1297h-459l-147 -556l-146 556h-526l-147 -556l-147 556h-459z" />
<glyph unicode="X" horiz-adv-x="1792" d="M7 -17l551 700l-551 699h676l213 -271l213 271h676l-551 -699l551 -700h-676l-213 271l-213 -271h-676zM113 34h546l237 302l237 -302h546l-510 649l510 648h-546l-237 -302l-237 302h-546l510 -648z" />
<glyph unicode="Y" horiz-adv-x="1689" d="M14 1382h619l212 -382l211 382h620l-558 -960v-439h-546v439zM102 1331l521 -896v-401h444v401l520 896h-500l-242 -437l-243 437h-500z" />
<glyph unicode="Z" d="M10 -17l621 939h-605v460h1500l-621 -938h605v-461h-1500zM77 973h650l-621 -939h1353v359h-650l621 938h-1353v-358z" />
<glyph unicode="[" horiz-adv-x="597" d="M26 -188v1741h546v-375h-171v-990h171v-376h-546zM77 -137h444v274h-171v1092h171v273h-444v-1639z" />
<glyph unicode="\" horiz-adv-x="904" d="M-22 1437l353 128l596 -1637l-354 -128zM43 1406l561 -1541l258 94l-562 1541z" />
<glyph unicode="]" horiz-adv-x="597" d="M26 -188v376h170v990h-170v375h546v-1741h-546zM77 137v-274h444v1639h-444v-273h170v-1092h-170z" />
<glyph unicode="^" horiz-adv-x="972" d="M14 751l360 631h225l360 -631h-244l-229 401l-228 -401h-244zM102 802h125l259 452l260 -452h124l-302 529h-164z" />
<glyph unicode="_" horiz-adv-x="682" d="M-17 -17v290h717v-290h-717zM34 34h615v188h-615v-188z" />
<glyph unicode="`" horiz-adv-x="853" d="M5 1524l203 201l620 -228v-65zM118 1562q137 -15 348 -43q87 -10 261 -39l-505 187z" />
<glyph unicode="a" horiz-adv-x="1621" d="M20 -17l367 1399h847l367 -1399h-565l-44 171h-362l-45 -171h-565zM85 34h459l45 171h444l44 -171h459l-343 1297h-765zM664 478l147 568l146 -568h-293zM729 529h164l-82 312z" />
<glyph unicode="b" d="M26 -17v1399h904q189 0 336 -112q159 -123 159 -306q0 -130 -77 -239q162 -124 162 -327q0 -183 -160 -304q-147 -111 -335 -111h-989zM77 34h938q166 0 299 97q145 107 145 267q0 193 -184 317q99 123 99 249q0 162 -145 270q-131 97 -299 97h-853v-1297zM486 307v273 h393q55 0 95.5 -40.5t40.5 -95.5t-40.5 -96t-95.5 -41h-393zM486 785v273h376q55 0 95.5 -40.5t40.5 -95.5t-41 -96t-95 -41h-376zM538 358h341q34 0 59.5 26t25.5 60t-25.5 59.5t-59.5 25.5h-341v-171zM538 836h324q34 0 59.5 26t25.5 60t-25.5 59.5t-59.5 25.5h-324v-171z " />
<glyph unicode="c" horiz-adv-x="1365" d="M26 683q0 294 227 500q217 199 512 199h3h572v-460h-572q-97 0 -172 -71t-75 -168t75 -168t172 -71h572v-461h-572q-297 0 -515 200q-227 207 -227 500zM288 220q205 -186 480 -186h521v359h-521q-119 0 -209 85t-90 205q0 118 90.5 204t208.5 86h521v358h-521 q-275 0 -480 -186q-211 -190 -211 -459q0 -274 211 -466z" />
<glyph unicode="d" d="M26 -17v1399h742q297 0 515 -199q227 -206 227 -500t-227 -500q-218 -200 -515 -200h-742zM77 34h691q275 0 480 186q211 192 211 463t-211 462q-205 186 -480 186h-691v-1297zM486 393v580h282q118 0 208.5 -86t90.5 -204q0 -119 -90 -204.5t-209 -85.5h-282zM538 444 h230q97 0 172 71t75 168t-75 168t-172 71h-230v-478z" />
<glyph unicode="e" horiz-adv-x="1450" d="M26 -17v1399h1399v-460h-853v-43h512v-393h-512v-42h853v-461h-1399zM77 34h1297v359h-853v145h512v290h-512v145h853v358h-1297v-1297z" />
<glyph unicode="f" horiz-adv-x="1450" d="M26 -17v1399h1399v-460h-853v-43h512v-393h-512v-503h-546zM77 34h444v504h512v290h-512v145h853v358h-1297v-1297z" />
<glyph unicode="g" d="M26 683q0 294 227 500q217 199 512 199h3h742v-460h-742q-97 0 -172 -71t-75 -168t75 -168t172 -71h196v256h546v-717h-742q-297 0 -515 200q-227 207 -227 500zM77 683q0 -273 211 -463q205 -186 480 -186h691v615h-444v-256h-247q-119 0 -209 85t-90 205 q0 118 90.5 204t208.5 86h691v358h-691q-275 0 -480 -186q-212 -191 -211 -462z" />
<glyph unicode="h" d="M26 -17v1399h546v-503h392v503h546v-1399h-546v503h-392v-503h-546zM77 34h444v504h494v-504h444v1297h-444v-503h-494v503h-444v-1297z" />
<glyph unicode="i" horiz-adv-x="597" d="M26 -17v1399h546v-1399h-546zM77 34h444v1297h-444v-1297z" />
<glyph unicode="j" horiz-adv-x="896" d="M22 102q60 -1 84 -1h15q254 0 254 155v1126h495v-1297q0 -290 -254 -387q-152 -56 -502 -56zM84 51l71 -358q304 0 441 53q223 86 223 339v1246h-392v-1075q0 -130 -116 -177q-71 -28 -217 -28h-10z" />
<glyph unicode="k" d="M26 -17v1399h546v-411l288 411h666l-509 -728l195 -195q15 -15 66 -15h232v-461h-375q-147 0 -312 138q-15 14 -251 248v-386h-546zM77 34h444v458l298 -296q164 -162 316 -162h324v359h-176q-80 0 -109 29l-222 225l475 684h-540l-366 -520v520h-444v-1297z" />
<glyph unicode="l" horiz-adv-x="1365" d="M26 -17v1399h546v-938h768v-461h-1314zM77 34h1212v359h-768v938h-444v-1297z" />
<glyph unicode="m" horiz-adv-x="1706" d="M26 -17v1399h537l290 -414l290 414h538v-1399h-546v389l-282 -401l-281 401v-389h-546zM77 34h444v502l332 -476l333 476v-502h444v1297h-459l-318 -452l-317 452h-459v-1297z" />
<glyph unicode="n" d="M26 -17v1399h537l401 -513v513h546v-1399h-537l-401 514v-514h-546zM77 34h444v613l476 -613h462v1297h-444v-612l-476 612h-462v-1297z" />
<glyph unicode="o" d="M26 683q0 294 227 500q217 199 512 199h3q297 0 515 -199q227 -206 227 -500t-227 -500q-218 -200 -515 -200t-515 200q-227 207 -227 500zM288 220q205 -186 480 -186t480 186q211 190 211 463t-211 462q-205 186 -480 186t-480 -186q-211 -188 -211 -459 q0 -276 211 -466zM469 683q0 118 90 204t209 86q118 0 208.5 -86t90.5 -204t-90 -204t-209 -86t-209 85t-90 205zM521 683q0 -97 75 -168t172 -71t172 71t75 168q0 96 -75 167.5t-172 71.5t-172 -71t-75 -168z" />
<glyph unicode="p" d="M26 -17v1399h989q196 0 345.5 -149.5t149.5 -345.5t-149 -345t-346 -149h-443v-410h-546zM77 34h444v410h494q174 0 309 134.5t135 308.5t-134.5 309t-309.5 135h-938v-1297zM521 751v273h358q55 0 95.5 -41t40.5 -96t-40.5 -95.5t-95.5 -40.5h-358zM572 802h307 q34 0 59.5 25.5t25.5 59.5t-25.5 60t-59.5 26h-307v-171z" />
<glyph unicode="q" horiz-adv-x="1621" d="M26 683q0 294 227 500q217 199 512 199h3q297 0 515 -199q227 -207 227 -500q0 -121 -42 -239h128v-461h-828q-297 0 -515 200q-227 207 -227 500zM288 220q205 -186 480 -186h777v359h-152q67 155 66 290q0 271 -211 462q-205 186 -480 186t-480 -186 q-211 -190 -211 -459q0 -274 211 -466zM469 683q0 118 90.5 204t208.5 86t208.5 -86t90.5 -204t-90 -204t-209 -86t-209 85t-90 205zM521 683q0 -97 75 -168t172 -71t172 71t75 168q0 96 -75 167.5t-172 71.5t-172 -71t-75 -168z" />
<glyph unicode="r" horiz-adv-x="1621" d="M26 -17v1399h989q196 0 345.5 -141.5t149.5 -335.5q0 -138 -78.5 -255.5t-204.5 -175.5q25 -30 60 -30h2h307v-461h-461q-147 0 -312 138q-20 17 -251 248v-386h-546zM77 34h444v458l298 -296q164 -162 316 -162h410v359h-256q-80 0 -137 107q138 53 220 154 q87 109 87 251q0 174 -134.5 300t-309.5 126h-938v-1297zM521 751v273h358q55 0 95.5 -41t40.5 -96t-40.5 -95.5t-95.5 -40.5h-358zM572 802h307q34 0 59.5 25.5t25.5 59.5t-25.5 60t-59.5 26h-307v-171z" />
<glyph unicode="s" horiz-adv-x="1450" d="M26 -17v461h524q17 0 17 24q-77 55 -229 167q-142 108 -142 316q0 174 135 302.5t309 128.5h785v-460h-560q-17 0 -17 -23l246 -186q160 -121 160 -324q0 -169 -137 -287.5t-308 -118.5h-783zM77 34h732q150 0 270 101q124 107 124 252q0 130 -89 234q-58 70 -194 164 q-38 22 -104 73q-19 17 -19 41q0 29 19.5 51.5t48.5 22.5h509v358h-734q-154 0 -273.5 -113.5t-119.5 -266.5q0 -147 96 -253q51 -56 179 -135q96 -61 96 -95q0 -29 -19.5 -52t-48.5 -23h-473v-359z" />
<glyph unicode="t" d="M26 922v460h1484v-460h-469v-939h-546v939h-469zM77 973h469v-939h444v939h469v358h-1382v-358z" />
<glyph unicode="u" d="M26 683v699h495v-699q0 -97 75 -168t172 -71t172 70.5t75 168.5v699h495v-699q0 -294 -227 -500q-218 -200 -515 -200t-515 200q-227 207 -227 500zM77 683q0 -273 211 -463q205 -186 480 -186t480 186q211 192 211 463v648h-392v-648q0 -118 -90.5 -204t-208.5 -86 q-119 0 -209 85t-90 205v648h-392v-648z" />
<glyph unicode="v" horiz-adv-x="1621" d="M20 1382h565l226 -860l225 860h565l-367 -1399h-847zM85 1331l343 -1297h765l343 1297h-459l-266 -1010l-267 1010h-459z" />
<glyph unicode="w" horiz-adv-x="2201" d="M20 1382h565l106 -406l106 406h608l105 -406l106 406h565l-367 -1399h-607l-106 406l-106 -406h-608zM85 1331l343 -1297h526l147 557l147 -557h525l343 1297h-459l-147 -556l-146 556h-526l-147 -556l-147 556h-459z" />
<glyph unicode="x" horiz-adv-x="1792" d="M7 -17l551 700l-551 699h676l213 -271l213 271h676l-551 -699l551 -700h-676l-213 271l-213 -271h-676zM113 34h546l237 302l237 -302h546l-510 649l510 648h-546l-237 -302l-237 302h-546l510 -648z" />
<glyph unicode="y" horiz-adv-x="1689" d="M14 1382h619l212 -382l211 382h620l-558 -960v-439h-546v439zM102 1331l521 -896v-401h444v401l520 896h-500l-242 -437l-243 437h-500z" />
<glyph unicode="z" d="M10 -17l621 939h-605v460h1500l-621 -938h605v-461h-1500zM77 973h650l-621 -939h1353v359h-650l621 938h-1353v-358z" />
<glyph unicode="{" horiz-adv-x="768" d="M26 582v184q72 7 117 45q53 43 53 111v273q0 143 107.5 250.5t251.5 107.5h187v-375h-170v-325q0 -119 -116 -170q116 -51 116 -171v-324h170v-376h-187q-143 0 -251 107.5t-108 251.5v256q0 68 -53 111q-46 38 -117 44zM77 628q73 -15 121.5 -71.5t48.5 -129.5v-256 q0 -123 92.5 -215.5t215.5 -92.5h136v274h-170v375q0 65 -50 102q-44 32 -113 36v65q68 3 115.5 38t47.5 100v376h170v273h-136q-123 0 -215.5 -92t-92.5 -215v-273q0 -73 -48.5 -129.5t-121.5 -72.5v-92z" />
<glyph unicode="|" horiz-adv-x="472" d="M26 -188v1741h375v-1741h-375zM77 -137h273v1639h-273v-1639z" />
<glyph unicode="}" horiz-adv-x="768" d="M26 -188v376h170v324q0 119 116 171q-116 51 -116 170v325h-170v375h187q143 0 251 -107.5t108 -250.5v-273q0 -68 53 -111q46 -38 117 -45v-184q-72 -7 -117 -44q-53 -43 -53 -111v-256q0 -143 -107.5 -251t-251.5 -108h-187zM77 137v-274h136q123 0 215.5 92.5 t92.5 215.5v256q0 73 48.5 129.5t121.5 71.5v92q-73 15 -121.5 71.5t-48.5 130.5v273q0 123 -92.5 215t-215.5 92h-136v-273h170v-376q0 -65 50 -102q44 -32 113 -36v-65q-68 -3 -113 -36q-49 -38 -50 -102v-375h-170z" />
<glyph unicode="~" horiz-adv-x="768" d="M26 1415v218q89 75 189 75q60 0 170 -41t170 -41q70 0 187 101v-215q-108 -79 -192 -78q-58 0 -167.5 41t-167.5 41q-72 0 -189 -101zM77 1521q70 46 138 46q58 0 167.5 -41t167.5 -41q62 -1 141 54v82q-70 -46 -136 -46q-60 0 -170 41t-170 41q-75 0 -138 -48v-88z" />
<glyph unicode="&#xa1;" horiz-adv-x="426" d="M24 -17l37 973h304l38 -973h-379zM26 1195q0 77 55.5 132t131.5 55q77 0 132.5 -55t55.5 -132t-55.5 -132.5t-132.5 -55.5t-132 55.5t-55 132.5zM77 1195q0 -55 41 -96t95 -41q55 0 96 41t41 96t-41 95.5t-96 40.5t-95.5 -41t-40.5 -95zM79 34h269l-31 871h-208z" />
<glyph unicode="&#xa2;" horiz-adv-x="1365" d="M26 683q0 237 155 423q148 179 382 247v200h376v-171h401v-460h-572q-97 0 -172 -71t-75 -168t75 -168t172 -71h572v-461h-401v-171h-376v200q-232 67 -382 247q-155 188 -155 424zM77 683q0 -232 157 -407q148 -164 380 -225v-188h273v171h402v359h-521q-119 0 -209 85 t-90 205q0 118 90.5 204t208.5 86h521v358h-402v171h-273v-188q-234 -61 -380 -225q-157 -174 -157 -406z" />
<glyph unicode="&#xa5;" horiz-adv-x="1689" d="M14 1382h619l212 -382l211 382h620l-299 -512h202v-290h-369l-31 -51h400v-290h-461v-256h-546v256h-461v290h399l-30 51h-369v290h201zM102 1331l299 -512h-239v-188h348l89 -153h-437v-188h461v-256h444v256h460v188h-436l88 153h348v188h-238l298 512h-500l-242 -437 l-243 437h-500z" />
<glyph unicode="&#xa8;" horiz-adv-x="768" d="M26 1579q0 58 43.5 101.5t101.5 43.5t101.5 -43.5t43.5 -101.5t-43.5 -101.5t-101.5 -43.5t-101.5 43.5t-43.5 101.5zM77 1579q0 -38 28 -66t66 -28t66 28t28 66t-28.5 66t-65.5 28q-38 0 -66 -28.5t-28 -65.5zM452 1579q0 58 43.5 101.5t101.5 43.5t101.5 -43.5 t43.5 -101.5t-43.5 -101.5t-101.5 -43.5t-101.5 43.5t-43.5 101.5zM503 1579q0 -38 28.5 -66t65.5 -28q38 0 66 28t28 66t-28 66t-66 28t-66 -28.5t-28 -65.5z" />
<glyph unicode="&#xa9;" horiz-adv-x="1245" d="M43 683q0 237 171.5 408.5t408.5 171.5q236 0 408 -172t172 -408q0 -237 -171.5 -409t-408.5 -172t-408.5 171.5t-171.5 409.5zM213 683q0 -166 122 -288t288 -122t288 122t122 288t-122.5 287.5t-287.5 121.5q-166 0 -288 -122t-122 -287zM314 683q0 108 92 184 q87 72 196 72h193v-161h-193q-43 0 -78.5 -27t-35.5 -68t36 -68.5t78 -27.5h193v-160h-193q-109 0 -196 71q-92 77 -92 185z" />
<glyph unicode="&#xad;" horiz-adv-x="768" d="M26 538v290h716v-290h-716zM77 589h614v188h-614v-188z" />
<glyph unicode="&#xae;" horiz-adv-x="1245" d="M43 683q0 237 171.5 408.5t408.5 171.5q236 0 408 -172t172 -408q0 -237 -171.5 -409t-408.5 -172t-408.5 171.5t-171.5 409.5zM213 683q0 -166 122 -288t288 -122t288 122t122 288t-122.5 287.5t-287.5 121.5q-166 0 -288 -122t-122 -287zM335 427v512h365 q70 0 124.5 -51.5t54.5 -121.5q0 -114 -111 -158q12 -20 34 -21h109v-160h-167q-60 0 -123 53q-15 15 -94 100v-153h-192zM527 720h122q37 0 37 39t-37 40h-122v-79z" />
<glyph unicode="&#xb0;" horiz-adv-x="469" d="M26 1172q0 85 61 147.5t147 62.5q85 0 147.5 -62.5t62.5 -147.5t-62.5 -146.5t-147.5 -61.5t-146.5 61.5t-61.5 146.5zM77 1172q0 -63 47 -110t110 -47t111 47t48 110q0 65 -47 112t-112 47q-63 0 -110 -47t-47 -112zM109 1172q0 49 37.5 87t87.5 38q49 0 86.5 -38 t37.5 -87t-37.5 -86.5t-86.5 -37.5q-51 0 -88 36.5t-37 87.5zM160 1172q0 -29 22.5 -51t51.5 -22t51 22t22 51t-22 51.5t-51 22.5t-51.5 -22.5t-22.5 -51.5z" />
<glyph unicode="&#xb1;" horiz-adv-x="768" d="M26 -17v290h716v-290h-716zM26 538v290h213v213h290v-213h213v-290h-213v-214h-290v214h-213zM77 34h614v188h-614v-188zM77 589h213v-214h188v214h213v188h-213v213h-188v-213h-213v-188z" />
<glyph unicode="&#xb4;" horiz-adv-x="853" d="M26 1432v65l619 228l203 -201zM186 1502l550 60l-105 105z" />
<glyph unicode="&#xb6;" d="M43 887q0 188 145 333t333 145h972v-375h-119v-990h-341v990h-171v-990h-341v410q-189 2 -333.5 145t-144.5 332z" />
<glyph unicode="&#xbc;" horiz-adv-x="1534" d="M17 1152l99 230h268v-716h-273v486h-94zM96 1203h66v-486h171v614h-183zM218 89l480 1316l353 -128l-479 -1316zM283 119l258 -93l445 1220l-257 94zM746 94l90 503h284l-47 -256h120v342h273v-342h43v-247h-43v-128h-273v128h-447zM807 145h437v-128h171v128h42v145h-42 v341h-171v-341h-232l46 256h-177z" />
<glyph unicode="&#xbd;" horiz-adv-x="1619" d="M17 1152l99 230h268v-716h-273v486h-94zM96 1203h66v-486h171v614h-183zM218 89l480 1316l353 -128l-479 -1316zM283 119l258 -93l445 1220l-257 94zM835 -17v232q0 92 69 162t161 70h256q9 0 8 9q0 14 -8 13h-444v231h487q92 0 161 -71t69 -163t-69 -162t-161 -70h-260 l-5 -21h495v-230h-759zM886 34h657v128h-495v31q0 92 60 92h256q70 0 124.5 55.5t54.5 125.5q0 72 -54 127.5t-125 55.5h-436v-128h393q60 0 60 -65q0 -24 -18 -42t-42 -18h-256q-70 0 -124.5 -55.5t-54.5 -125.5v-181z" />
<glyph unicode="&#xbe;" horiz-adv-x="1841" d="M26 666v230h443q9 0 9 10q0 9 -9 12h-273v214h273q9 0 9 8q0 12 -9 12h-443v230h486q96 0 163 -68t67 -164q0 -67 -39 -126q39 -60 39 -128q0 -94 -68 -162t-162 -68h-486zM77 717h435q72 0 125.5 53.5t53.5 125.5q0 61 -51 128q51 67 51 126q0 73 -53 127t-126 54h-435 v-128h392q60 0 60 -63q0 -24 -18 -42t-42 -18h-222v-111h222q60 0 60 -63q0 -24 -18 -42.5t-42 -18.5h-392v-128zM509 89l479 1316l353 -128l-479 -1316zM573 119l258 -93l446 1220l-258 94zM1053 111l90 503h284l-46 -256h119v342h273v-342h43v-247h-43v-128h-273v128h-447 zM1114 162h437v-128h171v128h43v145h-43v342h-171v-342h-232l46 256h-177z" />
<glyph unicode="&#xbf;" horiz-adv-x="1280" d="M26 432q0 176 134 311.5t309 135.5h359q53 0 51 111h375v-56q0 -176 -134 -312t-309 -136h-256q-34 0 -34 -34q0 -43 34 -42h699v-427h-785q-177 0 -310 135.5t-133 313.5zM77 432q0 -155 118.5 -276.5t273.5 -121.5h734v324h-648q-36 0 -61 28.5t-25 65.5q0 34 26 60 t60 26h256q157 0 274.5 122t117.5 279h-275q-15 -111 -100 -111h-359q-155 0 -273.5 -120.5t-118.5 -275.5zM879 1195q0 77 55.5 132t132.5 55t132 -55t55 -132t-55.5 -132.5t-131.5 -55.5q-77 0 -132.5 55.5t-55.5 132.5zM930 1195q0 -55 41 -96t96 -41t95.5 41t40.5 96 t-41 95.5t-95 40.5q-55 0 -96 -41t-41 -95z" />
<glyph unicode="&#xc0;" horiz-adv-x="1621" d="M20 -17l367 1399h847l367 -1399h-565l-44 171h-362l-45 -171h-565zM85 34h459l45 171h444l44 -171h459l-343 1297h-765zM218 1524l204 201l619 -228v-65zM331 1562q137 -15 348 -43q87 -10 261 -39l-505 187zM664 478l147 568l146 -568h-293zM729 529h164l-82 312z" />
<glyph unicode="&#xc1;" horiz-adv-x="1621" d="M20 -17l367 1399h847l367 -1399h-565l-44 171h-362l-45 -171h-565zM85 34h459l45 171h444l44 -171h459l-343 1297h-765zM580 1432v65l620 228l203 -201zM664 478l147 568l146 -568h-293zM729 529h164l-82 312zM741 1502l549 60l-104 105z" />
<glyph unicode="&#xc2;" horiz-adv-x="1621" d="M20 -17l367 1399h847l367 -1399h-565l-44 171h-362l-45 -171h-565zM85 34h459l45 171h444l44 -171h459l-343 1297h-765zM263 1434l387 290h321l388 -290h-333l-215 160l-215 -160h-333zM416 1485h163l232 174l232 -174h162l-251 188h-287zM664 478l147 568l146 -568h-293 zM729 529h164l-82 312z" />
<glyph unicode="&#xc3;" horiz-adv-x="1621" d="M20 -17l367 1399h847l367 -1399h-565l-44 171h-362l-45 -171h-565zM85 34h459l45 171h444l44 -171h459l-343 1297h-765zM452 1415v218q89 75 190 75q60 0 170 -41t169 -41q70 0 188 101v-215q-108 -79 -193 -78q-58 0 -167 41t-167 41q-72 0 -190 -101zM503 1521 q70 46 139 46q58 0 167 -41t167 -41q63 -1 142 54v82q-70 -46 -137 -46q-60 0 -170 41t-169 41q-75 0 -139 -48v-88zM664 478l147 568l146 -568h-293zM729 529h164l-82 312z" />
<glyph unicode="&#xc4;" horiz-adv-x="1621" d="M20 -17l367 1399h847l367 -1399h-565l-44 171h-362l-45 -171h-565zM85 34h459l45 171h444l44 -171h459l-343 1297h-765zM452 1579q0 58 43.5 101.5t101.5 43.5t101.5 -43.5t43.5 -101.5t-43.5 -101.5t-101.5 -43.5t-101.5 43.5t-43.5 101.5zM503 1579q0 -38 28.5 -66 t65.5 -28q38 0 66 28t28 66t-28 66t-66 28t-66 -28.5t-28 -65.5zM664 478l147 568l146 -568h-293zM729 529h164l-82 312zM879 1579q0 58 43.5 101.5t101.5 43.5t101.5 -43.5t43.5 -101.5t-43.5 -101.5t-101.5 -43.5t-101.5 43.5t-43.5 101.5zM930 1579q0 -38 28 -66t66 -28 t66 28t28 66t-28 66t-66 28t-66 -28.5t-28 -65.5z" />
<glyph unicode="&#xc5;" horiz-adv-x="1621" d="M20 -17l367 1399h847l367 -1399h-565l-44 171h-362l-45 -171h-565zM85 34h459l45 171h444l44 -171h459l-343 1297h-765zM664 478l147 568l146 -568h-293zM683 1579q0 51 38 89.5t90 38.5q51 0 89.5 -38.5t38.5 -89.5t-38.5 -89.5t-89.5 -38.5t-89.5 38t-38.5 90zM729 529 h164l-82 312zM751 1579q0 -60 60 -60q24 0 41.5 18t17.5 42t-17.5 41.5t-41.5 17.5t-42 -17.5t-18 -41.5z" />
<glyph unicode="&#xc6;" horiz-adv-x="2457" d="M14 -17l728 1399h1690v-460h-853v-43h512v-393h-512v-42h853v-461h-1399v171h-362l-89 -171h-568zM99 34h452l89 171h444v-171h1297v359h-854v145h512v290h-512v145h854v358h-1608zM765 444l319 602v-602h-319zM850 495h183v346z" />
<glyph unicode="&#xc8;" horiz-adv-x="1450" d="M26 -17v1399h1399v-460h-853v-43h512v-393h-512v-42h853v-461h-1399zM77 34h1297v359h-853v145h512v290h-512v145h853v358h-1297v-1297zM133 1524l203 201l620 -228v-65zM246 1562q137 -15 348 -43q87 -10 261 -39l-505 187z" />
<glyph unicode="&#xc9;" horiz-adv-x="1450" d="M26 -17v1399h1399v-460h-853v-43h512v-393h-512v-42h853v-461h-1399zM77 34h1297v359h-853v145h512v290h-512v145h853v358h-1297v-1297zM495 1432v65l619 228l204 -201zM655 1502l550 60l-104 105z" />
<glyph unicode="&#xca;" horiz-adv-x="1450" d="M26 -17v1399h1399v-460h-853v-43h512v-393h-512v-42h853v-461h-1399zM77 34h1297v359h-853v145h512v290h-512v145h853v358h-1297v-1297zM177 1434l388 290h321l387 -290h-333l-215 160l-215 -160h-333zM331 1485h162l232 174l232 -174h163l-251 188h-287z" />
<glyph unicode="&#xcb;" horiz-adv-x="1450" d="M26 -17v1399h1399v-460h-853v-43h512v-393h-512v-42h853v-461h-1399zM77 34h1297v359h-853v145h512v290h-512v145h853v358h-1297v-1297zM367 1579q0 58 43.5 101.5t101.5 43.5t101.5 -43.5t43.5 -101.5t-43.5 -101.5t-101.5 -43.5t-101.5 43.5t-43.5 101.5zM418 1579 q0 -38 28 -66t66 -28t66 28t28 66t-28 66t-66 28t-66 -28.5t-28 -65.5zM794 1579q0 58 43.5 101.5t101.5 43.5t101.5 -43.5t43.5 -101.5t-43.5 -101.5t-101.5 -43.5t-101.5 43.5t-43.5 101.5zM845 1579q0 -38 28 -66t66 -28t66 28t28 66t-28.5 66t-65.5 28q-38 0 -66 -28.5 t-28 -65.5z" />
<glyph unicode="&#xcc;" horiz-adv-x="597" d="M-294 1524l204 201l619 -228v-65zM-181 1562q137 -15 348 -43q87 -10 261 -39l-505 187zM26 -17v1399h546v-1399h-546zM77 34h444v1297h-444v-1297z" />
<glyph unicode="&#xcd;" horiz-adv-x="597" d="M26 -17v1399h546v-1399h-546zM68 1432v65l620 228l203 -201zM77 34h444v1297h-444v-1297zM229 1502l549 60l-104 105z" />
<glyph unicode="&#xce;" horiz-adv-x="597" d="M-249 1434l387 290h321l388 -290h-333l-215 160l-215 -160h-333zM-96 1485h163l232 174l232 -174h162l-251 188h-287zM26 -17v1399h546v-1399h-546zM77 34h444v1297h-444v-1297z" />
<glyph unicode="&#xcf;" horiz-adv-x="597" d="M-60 1579q0 58 43.5 101.5t101.5 43.5t101.5 -43.5t43.5 -101.5t-43.5 -101.5t-101.5 -43.5t-101.5 43.5t-43.5 101.5zM-9 1579q0 -38 28.5 -66t65.5 -28q38 0 66 28t28 66t-28 66t-66 28t-66 -28.5t-28 -65.5zM26 -17v1399h546v-1399h-546zM77 34h444v1297h-444v-1297z M367 1579q0 58 43.5 101.5t101.5 43.5t101.5 -43.5t43.5 -101.5t-43.5 -101.5t-101.5 -43.5t-101.5 43.5t-43.5 101.5zM418 1579q0 -38 28 -66t66 -28t66 28t28 66t-28 66t-66 28t-66 -28.5t-28 -65.5z" />
<glyph unicode="&#xd1;" d="M26 -17v1399h25q273 0 504 -92q253 -102 409 -302v394h546v-1399h-544q-10 217 -96 375q-108 196 -298 221v-596h-546zM77 34h444v599q227 -12 360 -196q116 -160 133 -403h445v1297h-444v-507q-169 258 -397.5 380t-540.5 127v-1297zM410 1415v218q89 75 189 75 q60 0 170 -41t170 -41q70 0 187 101v-215q-108 -79 -192 -78q-58 0 -167.5 41t-167.5 41q-72 0 -189 -101zM461 1521q70 46 138 46q58 0 167.5 -41t167.5 -41q62 -1 141 54v82q-70 -46 -136 -46q-60 0 -170 41t-170 41q-75 0 -138 -48v-88z" />
<glyph unicode="&#xd2;" d="M26 683q0 294 227 500q218 200 515 199q297 0 515 -199q227 -206 227 -500t-227 -500q-218 -200 -515 -200t-515 200q-227 207 -227 500zM77 683q0 -273 211 -463q205 -186 480 -186t480 186q211 190 211 463t-211 462q-205 186 -480 186t-480 -186q-212 -189 -211 -462z M176 1524l203 201l619 -228v-65zM288 1562q137 -15 349 -43q87 -10 261 -39l-505 187zM469 683q0 118 90 204t209 86q118 0 208.5 -86t90.5 -204t-90 -204t-209 -86t-209 85t-90 205zM521 683q0 -97 75 -168t172 -71t172 71t75 168q0 96 -75 167.5t-172 71.5t-172 -71 t-75 -168z" />
<glyph unicode="&#xd3;" d="M26 683q0 294 227 500q218 200 515 199q297 0 515 -199q227 -206 227 -500t-227 -500q-218 -200 -515 -200t-515 200q-227 207 -227 500zM77 683q0 -273 211 -465q205 -184 480 -184t480 186q211 190 211 463q0 271 -211 462q-205 186 -480 186t-480 -186 q-212 -189 -211 -462zM469 683q0 118 90 204t209 86q118 0 208.5 -86t90.5 -204t-90 -204t-209 -86t-209 85t-90 205zM521 683q0 -97 75 -168t172 -71t172 71t75 168q0 96 -75 167.5t-172 71.5t-172 -71t-75 -168zM538 1432v65l619 228l203 -201zM698 1502l550 60l-105 105z " />
<glyph unicode="&#xd4;" d="M26 683q0 294 227 500q218 200 515 199q297 0 515 -199q227 -206 227 -500t-227 -500q-218 -200 -515 -200t-515 200q-227 207 -227 500zM77 683q0 -273 211 -463q205 -186 480 -186t480 186q211 192 211 463t-211 462q-205 186 -480 186t-480 -186q-212 -191 -211 -462z M220 1434l388 290h320l388 -290h-333l-215 160l-215 -160h-333zM374 1485h162l232 174l232 -174h162l-251 188h-286zM469 683q0 118 90 204t209 86q118 0 208.5 -86t90.5 -204t-90 -204t-209 -86t-209 85t-90 205zM521 683q0 -97 75 -168t172 -71t172 71t75 168 q0 96 -75 167.5t-172 71.5t-172 -71t-75 -168z" />
<glyph unicode="&#xd5;" d="M26 683q0 294 227 500q218 200 515 199q297 0 515 -199q227 -206 227 -500t-227 -500q-218 -200 -515 -200t-515 200q-227 207 -227 500zM77 683q0 -273 211 -465q205 -184 480 -184t480 186q211 190 211 463t-211 462q-205 186 -480 186t-480 -186q-212 -191 -211 -462z M410 1415v218q89 75 189 75q60 0 170 -41t170 -41q70 0 187 101v-215q-108 -79 -192 -78q-58 0 -167.5 41t-167.5 41q-72 0 -189 -101zM461 1521q70 46 138 46q58 0 167.5 -41t167.5 -41q62 -1 141 54v82q-70 -46 -136 -46q-60 0 -170 41t-170 41q-75 0 -138 -48v-88z M469 683q0 118 90 204t209 86q118 0 208.5 -86t90.5 -204t-90 -204t-209 -86t-209 85t-90 205zM521 683q0 -97 75 -168t172 -71t172 71t75 168q0 96 -75 167.5t-172 71.5t-172 -71t-75 -168z" />
<glyph unicode="&#xd6;" d="M26 683q0 294 227 500q218 200 515 199q297 0 515 -199q227 -206 227 -500t-227 -500q-218 -200 -515 -200t-515 200q-227 207 -227 500zM77 683q0 -273 211 -463q205 -186 480 -186t480 186q211 190 211 463t-211 462q-205 186 -480 186t-480 -186q-212 -189 -211 -462z M410 1579q0 58 43.5 101.5t101.5 43.5t101.5 -43.5t43.5 -101.5t-43.5 -101.5t-101.5 -43.5t-101.5 43.5t-43.5 101.5zM461 1579q0 -38 28 -66t66 -28t66 28t28 66t-28.5 66t-65.5 28q-38 0 -66 -28.5t-28 -65.5zM469 683q0 118 90 204t209 86q118 0 208.5 -86t90.5 -204 t-90 -204t-209 -86t-209 85t-90 205zM521 683q0 -97 75 -168t172 -71t172 71t75 168q0 96 -75 167.5t-172 71.5t-172 -71t-75 -168zM836 1579q0 58 43.5 101.5t101.5 43.5t101.5 -43.5t43.5 -101.5t-43.5 -101.5t-101.5 -43.5t-101.5 43.5t-43.5 101.5zM887 1579 q0 -38 28.5 -66t65.5 -28q38 0 66 28t28 66t-28 66t-66 28t-66 -28.5t-28 -65.5z" />
<glyph unicode="&#xd7;" horiz-adv-x="747" d="M19 532l150 151l-150 150l205 205l150 -151l150 151l205 -205l-150 -150l150 -151l-205 -204l-150 150l-150 -150zM90 532l134 -133l150 151l150 -151l133 133l-150 151l150 150l-133 133l-150 -150l-150 150l-134 -133l151 -150z" />
<glyph unicode="&#xd8;" d="M-70 49l232 233q-137 184 -136 401q0 294 227 500q218 200 515 199q205 0 389 -105l244 244l205 -205l-232 -232q137 -184 136 -401q0 -294 -227 -500q-218 -200 -515 -200q-205 0 -389 106l-244 -244zM2 49l133 -133l237 238q195 -119 396 -120q275 0 480 186 q212 191 211 463q0 212 -153 404l228 229l-133 133l-237 -237q-196 119 -396 119q-275 0 -480 -186q-212 -191 -211 -462q0 -212 153 -405zM469 683q0 118 90.5 204t208.5 86q46 0 133 -24l-401 -401q-31 92 -31 135zM521 683q0 -15 5 -38l274 275q-15 2 -32 2 q-97 0 -172 -71t-75 -168zM635 416l401 401q31 -100 31 -134q0 -118 -90 -204t-209 -86q-44 0 -133 23zM736 445q15 -2 32 -1q97 0 172 71t75 168q0 15 -5 37z" />
<glyph unicode="&#xd9;" d="M26 683v699h495v-699q0 -97 75 -168t172 -71t172 70.5t75 168.5v699h495v-699q0 -294 -227 -500q-218 -200 -515 -200t-515 200q-227 207 -227 500zM77 683q0 -273 211 -463q205 -186 480 -186t480 186q211 192 211 463v648h-392v-648q0 -118 -90.5 -204t-208.5 -86 q-119 0 -209 85t-90 205v648h-392v-648zM176 1524l203 201l619 -228v-65zM288 1562q137 -15 349 -43q87 -10 261 -39l-505 187z" />
<glyph unicode="&#xda;" d="M26 683v699h495v-699q0 -97 75 -168t172 -71t172 70.5t75 168.5v699h495v-699q0 -294 -227 -500q-218 -200 -515 -200t-515 200q-227 207 -227 500zM77 683q0 -273 211 -463q205 -186 480 -186t480 186q211 192 211 463v648h-392v-648q0 -118 -90.5 -204t-208.5 -86 q-119 0 -209 85t-90 205v648h-392v-648zM538 1432v65l619 228l203 -201zM698 1502l550 60l-105 105z" />
<glyph unicode="&#xdb;" d="M26 683v699h495v-699q0 -97 75 -168t172 -71t172 70.5t75 168.5v699h495v-699q0 -294 -227 -500q-218 -200 -515 -200t-515 200q-227 207 -227 500zM77 683q0 -273 211 -463q205 -186 480 -186t480 186q211 192 211 463v648h-392v-648q0 -118 -90.5 -204t-208.5 -86 q-119 0 -209 85t-90 205v648h-392v-648zM220 1434l388 290h320l388 -290h-333l-215 160l-215 -160h-333zM374 1485h162l232 174l232 -174h162l-251 188h-286z" />
<glyph unicode="&#xdc;" d="M26 683v699h495v-699q0 -97 75 -168t172 -71t172 70.5t75 168.5v699h495v-699q0 -294 -227 -500q-218 -200 -515 -200t-515 200q-227 207 -227 500zM77 683q0 -273 211 -463q205 -186 480 -186t480 186q211 192 211 463v648h-392v-648q0 -118 -90.5 -204t-208.5 -86 q-119 0 -209 85t-90 205v648h-392v-648zM410 1579q0 58 43.5 101.5t101.5 43.5t101.5 -43.5t43.5 -101.5t-43.5 -101.5t-101.5 -43.5t-101.5 43.5t-43.5 101.5zM461 1579q0 -38 28 -66t66 -28t66 28t28 66t-28.5 66t-65.5 28q-38 0 -66 -28.5t-28 -65.5zM836 1579 q0 58 43.5 101.5t101.5 43.5t101.5 -43.5t43.5 -101.5t-43.5 -101.5t-101.5 -43.5t-101.5 43.5t-43.5 101.5zM887 1579q0 -38 28.5 -66t65.5 -28q38 0 66 28t28 66t-28 66t-66 28t-66 -28.5t-28 -65.5z" />
<glyph unicode="&#xdd;" horiz-adv-x="1689" d="M14 1382h619l212 -382l211 382h620l-558 -960v-439h-546v439zM102 1331l521 -896v-401h444v401l520 896h-500l-242 -437l-243 437h-500zM614 1432v65l620 228l203 -201zM775 1502l549 60l-104 105z" />
<glyph unicode="&#xe0;" horiz-adv-x="1621" d="M20 -17l367 1399h847l367 -1399h-565l-44 171h-362l-45 -171h-565zM85 34h459l45 171h444l44 -171h459l-343 1297h-765zM218 1524l204 201l619 -228v-65zM331 1562q137 -15 348 -43q87 -10 261 -39l-505 187zM664 478l147 568l146 -568h-293zM729 529h164l-82 312z" />
<glyph unicode="&#xe1;" horiz-adv-x="1621" d="M20 -17l367 1399h847l367 -1399h-565l-44 171h-362l-45 -171h-565zM85 34h459l45 171h444l44 -171h459l-343 1297h-765zM580 1432v65l620 228l203 -201zM664 478l147 568l146 -568h-293zM729 529h164l-82 312zM741 1502l549 60l-104 105z" />
<glyph unicode="&#xe2;" horiz-adv-x="1621" d="M20 -17l367 1399h847l367 -1399h-565l-44 171h-362l-45 -171h-565zM85 34h459l45 171h444l44 -171h459l-343 1297h-765zM263 1434l387 290h321l388 -290h-333l-215 160l-215 -160h-333zM416 1485h163l232 174l232 -174h162l-251 188h-287zM664 478l147 568l146 -568h-293 zM729 529h164l-82 312z" />
<glyph unicode="&#xe3;" horiz-adv-x="1621" d="M20 -17l367 1399h847l367 -1399h-565l-44 171h-362l-45 -171h-565zM85 34h459l45 171h444l44 -171h459l-343 1297h-765zM452 1415v218q89 75 190 75q60 0 170 -41t169 -41q70 0 188 101v-215q-108 -79 -193 -78q-58 0 -167 41t-167 41q-72 0 -190 -101zM503 1521 q70 46 139 46q58 0 167 -41t167 -41q63 -1 142 54v82q-70 -46 -137 -46q-60 0 -170 41t-169 41q-75 0 -139 -48v-88zM664 478l147 568l146 -568h-293zM729 529h164l-82 312z" />
<glyph unicode="&#xe4;" horiz-adv-x="1621" d="M20 -17l367 1399h847l367 -1399h-565l-44 171h-362l-45 -171h-565zM85 34h459l45 171h444l44 -171h459l-343 1297h-765zM452 1579q0 58 43.5 101.5t101.5 43.5t101.5 -43.5t43.5 -101.5t-43.5 -101.5t-101.5 -43.5t-101.5 43.5t-43.5 101.5zM503 1579q0 -38 28.5 -66 t65.5 -28q38 0 66 28t28 66t-28 66t-66 28t-66 -28.5t-28 -65.5zM664 478l147 568l146 -568h-293zM729 529h164l-82 312zM879 1579q0 58 43.5 101.5t101.5 43.5t101.5 -43.5t43.5 -101.5t-43.5 -101.5t-101.5 -43.5t-101.5 43.5t-43.5 101.5zM930 1579q0 -38 28 -66t66 -28 t66 28t28 66t-28 66t-66 28t-66 -28.5t-28 -65.5z" />
<glyph unicode="&#xe5;" horiz-adv-x="1621" d="M20 -17l367 1399h847l367 -1399h-565l-44 171h-362l-45 -171h-565zM85 34h459l45 171h444l44 -171h459l-343 1297h-765zM664 478l147 568l146 -568h-293zM683 1579q0 51 38 89.5t90 38.5q51 0 89.5 -38.5t38.5 -89.5t-38.5 -89.5t-89.5 -38.5t-89.5 38t-38.5 90zM729 529 h164l-82 312zM751 1579q0 -60 60 -60q24 0 41.5 18t17.5 42t-17.5 41.5t-41.5 17.5t-42 -17.5t-18 -41.5z" />
<glyph unicode="&#xe6;" horiz-adv-x="2457" d="M14 -17l728 1399h1690v-460h-853v-43h512v-393h-512v-42h853v-461h-1399v171h-362l-89 -171h-568zM99 34h452l89 171h444v-171h1297v359h-854v145h512v290h-512v145h854v358h-1608zM765 444l319 602v-602h-319zM850 495h183v346z" />
<glyph unicode="&#xe8;" horiz-adv-x="1450" d="M26 -17v1399h1399v-460h-853v-43h512v-393h-512v-42h853v-461h-1399zM77 34h1297v359h-853v145h512v290h-512v145h853v358h-1297v-1297zM133 1524l203 201l620 -228v-65zM246 1562q137 -15 348 -43q87 -10 261 -39l-505 187z" />
<glyph unicode="&#xe9;" horiz-adv-x="1450" d="M26 -17v1399h1399v-460h-853v-43h512v-393h-512v-42h853v-461h-1399zM77 34h1297v359h-853v145h512v290h-512v145h853v358h-1297v-1297zM495 1432v65l619 228l204 -201zM655 1502l550 60l-104 105z" />
<glyph unicode="&#xea;" horiz-adv-x="1450" d="M26 -17v1399h1399v-460h-853v-43h512v-393h-512v-42h853v-461h-1399zM77 34h1297v359h-853v145h512v290h-512v145h853v358h-1297v-1297zM177 1434l388 290h321l387 -290h-333l-215 160l-215 -160h-333zM331 1485h162l232 174l232 -174h163l-251 188h-287z" />
<glyph unicode="&#xeb;" horiz-adv-x="1450" d="M26 -17v1399h1399v-460h-853v-43h512v-393h-512v-42h853v-461h-1399zM77 34h1297v359h-853v145h512v290h-512v145h853v358h-1297v-1297zM367 1579q0 58 43.5 101.5t101.5 43.5t101.5 -43.5t43.5 -101.5t-43.5 -101.5t-101.5 -43.5t-101.5 43.5t-43.5 101.5zM418 1579 q0 -38 28 -66t66 -28t66 28t28 66t-28 66t-66 28t-66 -28.5t-28 -65.5zM794 1579q0 58 43.5 101.5t101.5 43.5t101.5 -43.5t43.5 -101.5t-43.5 -101.5t-101.5 -43.5t-101.5 43.5t-43.5 101.5zM845 1579q0 -38 28 -66t66 -28t66 28t28 66t-28.5 66t-65.5 28q-38 0 -66 -28.5 t-28 -65.5z" />
<glyph unicode="&#xec;" horiz-adv-x="597" d="M-294 1524l204 201l619 -228v-65zM-181 1562q137 -15 348 -43q87 -10 261 -39l-505 187zM26 -17v1399h546v-1399h-546zM77 34h444v1297h-444v-1297z" />
<glyph unicode="&#xed;" horiz-adv-x="597" d="M26 -17v1399h546v-1399h-546zM68 1432v65l620 228l203 -201zM77 34h444v1297h-444v-1297zM229 1502l549 60l-104 105z" />
<glyph unicode="&#xee;" horiz-adv-x="597" d="M-249 1434l387 290h321l388 -290h-333l-215 160l-215 -160h-333zM-96 1485h163l232 174l232 -174h162l-251 188h-287zM26 -17v1399h546v-1399h-546zM77 34h444v1297h-444v-1297z" />
<glyph unicode="&#xef;" horiz-adv-x="597" d="M-60 1579q0 58 43.5 101.5t101.5 43.5t101.5 -43.5t43.5 -101.5t-43.5 -101.5t-101.5 -43.5t-101.5 43.5t-43.5 101.5zM-9 1579q0 -38 28.5 -66t65.5 -28q38 0 66 28t28 66t-28 66t-66 28t-66 -28.5t-28 -65.5zM26 -17v1399h546v-1399h-546zM77 34h444v1297h-444v-1297z M367 1579q0 58 43.5 101.5t101.5 43.5t101.5 -43.5t43.5 -101.5t-43.5 -101.5t-101.5 -43.5t-101.5 43.5t-43.5 101.5zM418 1579q0 -38 28 -66t66 -28t66 28t28 66t-28 66t-66 28t-66 -28.5t-28 -65.5z" />
<glyph unicode="&#xf1;" d="M26 -17v1399h537l401 -513v513h546v-1399h-537l-401 514v-514h-546zM77 34h444v613l476 -613h462v1297h-444v-612l-476 612h-462v-1297zM410 1415v218q89 75 189 75q60 0 170 -41t170 -41q70 0 187 101v-215q-108 -79 -192 -78q-58 0 -167.5 41t-167.5 41 q-72 0 -189 -101zM461 1521q70 46 138 46q58 0 167.5 -41t167.5 -41q62 -1 141 54v82q-70 -46 -136 -46q-60 0 -170 41t-170 41q-75 0 -138 -48v-88z" />
<glyph unicode="&#xf2;" d="M26 683q0 294 227 500q218 200 515 199q297 0 515 -199q227 -206 227 -500t-227 -500q-218 -200 -515 -200t-515 200q-227 207 -227 500zM77 683q0 -273 211 -463q205 -186 480 -186t480 186q211 190 211 463t-211 462q-205 186 -480 186t-480 -186q-212 -189 -211 -462z M176 1524l203 201l619 -228v-65zM288 1562q137 -15 349 -43q87 -10 261 -39l-505 187zM469 683q0 118 90 204t209 86q118 0 208.5 -86t90.5 -204t-90 -204t-209 -86t-209 85t-90 205zM521 683q0 -97 75 -168t172 -71t172 71t75 168q0 96 -75 167.5t-172 71.5t-172 -71 t-75 -168z" />
<glyph unicode="&#xf3;" d="M26 683q0 294 227 500q218 200 515 199q297 0 515 -199q227 -206 227 -500t-227 -500q-218 -200 -515 -200t-515 200q-227 207 -227 500zM77 683q0 -273 211 -465q205 -184 480 -184t480 186q211 190 211 463t-211 462q-205 186 -480 186t-480 -186q-212 -189 -211 -462z M469 683q0 118 90 204t209 86q118 0 208.5 -86t90.5 -204t-90 -204t-209 -86t-209 85t-90 205zM521 683q0 -97 75 -168t172 -71t172 71t75 168q0 96 -75 167.5t-172 71.5t-172 -71t-75 -168zM538 1432v65l619 228l203 -201zM698 1502l550 60l-105 105z" />
<glyph unicode="&#xf4;" d="M26 683q0 294 227 500q218 200 515 199q297 0 515 -199q227 -206 227 -500t-227 -500q-218 -200 -515 -200t-515 200q-227 207 -227 500zM77 683q0 -273 211 -463q205 -186 480 -186t480 186q211 192 211 463t-211 462q-205 186 -480 186t-480 -186q-212 -191 -211 -462z M220 1434l388 290h320l388 -290h-333l-215 160l-215 -160h-333zM374 1485h162l232 174l232 -174h162l-251 188h-286zM469 683q0 118 90.5 204t208.5 86t208.5 -86t90.5 -204t-90 -204t-209 -86t-209 85t-90 205zM521 683q0 -97 75 -168t172 -71t172 71t75 168 q0 96 -75 167.5t-172 71.5t-172 -71t-75 -168z" />
<glyph unicode="&#xf5;" d="M26 683q0 294 227 500q218 200 515 199q297 0 515 -199q227 -206 227 -500t-227 -500q-218 -200 -515 -200t-515 200q-227 207 -227 500zM77 683q0 -273 211 -465q205 -184 480 -184t480 186q211 190 211 463t-211 462q-205 186 -480 186t-480 -186q-212 -189 -211 -462z M410 1415v218q89 75 189 75q60 0 170 -41t170 -41q70 0 187 101v-215q-108 -79 -192 -78q-58 0 -167.5 41t-167.5 41q-72 0 -189 -101zM461 1521q70 46 138 46q58 0 167.5 -41t167.5 -41q62 -1 141 54v82q-70 -46 -136 -46q-60 0 -170 41t-170 41q-75 0 -138 -48v-88z M469 683q0 118 90 204t209 86q118 0 208.5 -86t90.5 -204t-90 -204t-209 -86t-209 85t-90 205zM521 683q0 -97 75 -168t172 -71t172 71t75 168q0 96 -75 167.5t-172 71.5t-172 -71t-75 -168z" />
<glyph unicode="&#xf6;" d="M26 683q0 294 227 500q218 200 515 199q297 0 515 -199q227 -206 227 -500t-227 -500q-218 -200 -515 -200t-515 200q-227 207 -227 500zM77 683q0 -273 211 -463q205 -186 480 -186t480 186q211 190 211 463t-211 462q-205 186 -480 186t-480 -186q-212 -189 -211 -462z M410 1579q0 58 43.5 101.5t101.5 43.5t101.5 -43.5t43.5 -101.5t-43.5 -101.5t-101.5 -43.5t-101.5 43.5t-43.5 101.5zM461 1579q0 -38 28 -66t66 -28t66 28t28 66t-28.5 66t-65.5 28q-38 0 -66 -28.5t-28 -65.5zM469 683q0 118 90 204t209 86q118 0 208.5 -86t90.5 -204 t-90 -204t-209 -86t-209 85t-90 205zM521 683q0 -97 75 -168t172 -71t172 71t75 168q0 96 -75 167.5t-172 71.5t-172 -71t-75 -168zM836 1579q0 58 43.5 101.5t101.5 43.5t101.5 -43.5t43.5 -101.5t-43.5 -101.5t-101.5 -43.5t-101.5 43.5t-43.5 101.5zM887 1579 q0 -38 28.5 -66t65.5 -28q38 0 66 28t28 66t-28 66t-66 28t-66 -28.5t-28 -65.5z" />
<glyph unicode="&#xf7;" horiz-adv-x="768" d="M26 538v290h716v-290h-716zM77 589h614v188h-614v-188zM239 393q0 58 43.5 101.5t101.5 43.5t101.5 -43.5t43.5 -101.5t-43.5 -102t-101.5 -44t-101.5 44t-43.5 102zM239 973q0 58 43.5 101.5t101.5 43.5t101.5 -43.5t43.5 -101.5t-43.5 -101.5t-101.5 -43.5t-101.5 43.5 t-43.5 101.5zM290 393q0 -36 29 -65t65 -29t65 29t29 65t-29 64.5t-65 28.5t-65 -29t-29 -64zM290 973q0 -36 29 -65t65 -29t65 29t29 65t-29 65t-65 29t-65 -29t-29 -65z" />
<glyph unicode="&#xf8;" d="M-70 49l232 233q-137 184 -136 401q0 294 227 500q218 200 515 199q205 0 389 -105l244 244l205 -205l-232 -232q137 -184 136 -401q0 -294 -227 -500q-218 -200 -515 -200q-205 0 -389 106l-244 -244zM2 49l133 -133l237 238q195 -119 396 -120q275 0 480 186 q212 191 211 463q0 212 -153 404l228 229l-133 133l-237 -237q-196 119 -396 119q-275 0 -480 -186q-212 -191 -211 -462q0 -212 153 -405zM469 683q0 118 90 204t209 86q46 0 133 -24l-401 -401q-31 92 -31 135zM521 683q0 -15 5 -38l274 275q-15 2 -32 2q-97 0 -172 -71 t-75 -168zM635 416l401 401q31 -100 31 -134q0 -118 -90 -204t-209 -86q-44 0 -133 23zM736 445q15 -2 32 -1q97 0 172 71t75 168q0 15 -5 37z" />
<glyph unicode="&#xf9;" d="M26 683v699h495v-699q0 -97 75 -168t172 -71t172 70.5t75 168.5v699h495v-699q0 -294 -227 -500q-218 -200 -515 -200t-515 200q-227 207 -227 500zM77 683q0 -273 211 -463q205 -186 480 -186t480 186q211 192 211 463v648h-392v-648q0 -118 -90.5 -204t-208.5 -86 q-119 0 -209 85t-90 205v648h-392v-648zM176 1524l203 201l619 -228v-65zM288 1562q137 -15 349 -43q87 -10 261 -39l-505 187z" />
<glyph unicode="&#xfa;" d="M26 683v699h495v-699q0 -97 75 -168t172 -71t172 70.5t75 168.5v699h495v-699q0 -294 -227 -500q-218 -200 -515 -200t-515 200q-227 207 -227 500zM77 683q0 -273 211 -463q205 -186 480 -186t480 186q211 192 211 463v648h-392v-648q0 -118 -90.5 -204t-208.5 -86 q-119 0 -209 85t-90 205v648h-392v-648zM538 1432v65l619 228l203 -201zM698 1502l550 60l-105 105z" />
<glyph unicode="&#xfb;" d="M26 683v699h495v-699q0 -97 75 -168t172 -71t172 70.5t75 168.5v699h495v-699q0 -294 -227 -500q-218 -200 -515 -200t-515 200q-227 207 -227 500zM77 683q0 -273 211 -463q205 -186 480 -186t480 186q211 192 211 463v648h-392v-648q0 -118 -90.5 -204t-208.5 -86 q-119 0 -209 85t-90 205v648h-392v-648zM220 1434l388 290h320l388 -290h-333l-215 160l-215 -160h-333zM374 1485h162l232 174l232 -174h162l-251 188h-286z" />
<glyph unicode="&#xfc;" d="M26 683v699h495v-699q0 -97 75 -168t172 -71t172 70.5t75 168.5v699h495v-699q0 -294 -227 -500q-218 -200 -515 -200t-515 200q-227 207 -227 500zM77 683q0 -273 211 -463q205 -186 480 -186t480 186q211 192 211 463v648h-392v-648q0 -118 -90.5 -204t-208.5 -86 q-119 0 -209 85t-90 205v648h-392v-648zM410 1579q0 58 43.5 101.5t101.5 43.5t101.5 -43.5t43.5 -101.5t-43.5 -101.5t-101.5 -43.5t-101.5 43.5t-43.5 101.5zM461 1579q0 -38 28 -66t66 -28t66 28t28 66t-28.5 66t-65.5 28q-38 0 -66 -28.5t-28 -65.5zM836 1579 q0 58 43.5 101.5t101.5 43.5t101.5 -43.5t43.5 -101.5t-43.5 -101.5t-101.5 -43.5t-101.5 43.5t-43.5 101.5zM887 1579q0 -38 28.5 -66t65.5 -28q38 0 66 28t28 66t-28 66t-66 28t-66 -28.5t-28 -65.5z" />
<glyph unicode="&#xfd;" horiz-adv-x="1689" d="M14 1382h619l212 -382l211 382h620l-558 -960v-439h-546v439zM102 1331l521 -896v-401h444v401l520 896h-500l-242 -437l-243 437h-500zM614 1432v65l620 228l203 -201zM775 1502l549 60l-104 105z" />
<glyph unicode="&#xff;" horiz-adv-x="1689" d="M14 1382h619l212 -382l211 382h620l-558 -960v-439h-546v439zM102 1331l521 -896v-401h444v401l520 896h-500l-242 -437l-243 437h-500zM486 1579q0 58 43.5 101.5t101.5 43.5t102 -43.5t44 -101.5t-44 -101.5t-102 -43.5t-101.5 43.5t-43.5 101.5zM538 1579 q0 -38 28 -66t65 -28q38 0 66 28t28 66t-28 66t-66 28t-65.5 -28.5t-27.5 -65.5zM913 1579q0 58 43.5 101.5t101.5 43.5t101.5 -43.5t43.5 -101.5t-43.5 -101.5t-101.5 -43.5t-101.5 43.5t-43.5 101.5zM964 1579q0 -38 28.5 -66t65.5 -28q38 0 66 28t28 66t-28 66t-66 28 t-66 -28.5t-28 -65.5z" />
<glyph unicode="&#x152;" horiz-adv-x="2449" d="M26 683q0 294 227 500q218 200 515 199q126 0 256 -44v44h1399v-460h-853v-43h512v-393h-512v-42h853v-461h-1399v44q-130 -44 -256 -44q-297 0 -515 200q-227 207 -227 500zM77 683q0 -271 211 -463q205 -186 480 -186q138 0 307 67v-67h1297v359h-853v145h512v290h-512 v145h853v358h-1297v-66q-169 67 -307 66q-275 0 -480 -186q-212 -191 -211 -462zM469 683q0 118 90 204t209 86q118 0 208.5 -86t90.5 -204t-90 -204t-209 -86t-209 85t-90 205zM521 683q0 -97 75 -168t172 -71t172 71t75 168q0 96 -75 167.5t-172 71.5t-172 -71t-75 -168z " />
<glyph unicode="&#x153;" horiz-adv-x="2449" d="M26 683q0 294 227 500q218 200 515 199q126 0 256 -44v44h1399v-460h-853v-43h512v-393h-512v-42h853v-461h-1399v44q-130 -44 -256 -44q-297 0 -515 200q-227 207 -227 500zM77 683q0 -271 211 -463q205 -186 480 -186q138 0 307 67v-67h1297v359h-853v145h512v290h-512 v145h853v358h-1297v-66q-169 67 -307 66q-275 0 -480 -186q-212 -191 -211 -462zM469 683q0 118 90 204t209 86q118 0 208.5 -86t90.5 -204t-90 -204t-209 -86t-209 85t-90 205zM521 683q0 -97 75 -168t172 -71t172 71t75 168q0 96 -75 167.5t-172 71.5t-172 -71t-75 -168z " />
<glyph unicode="&#x178;" horiz-adv-x="1689" d="M14 1382h619l212 -382l211 382h620l-558 -960v-439h-546v439zM102 1331l521 -896v-401h444v401l520 896h-500l-242 -437l-243 437h-500zM486 1579q0 58 43.5 101.5t101.5 43.5t102 -43.5t44 -101.5t-44 -101.5t-102 -43.5t-101.5 43.5t-43.5 101.5zM538 1579 q0 -38 28 -66t65 -28q38 0 66 28t28 66t-28 66t-66 28t-65.5 -28.5t-27.5 -65.5zM913 1579q0 58 43.5 101.5t101.5 43.5t101.5 -43.5t43.5 -101.5t-43.5 -101.5t-101.5 -43.5t-101.5 43.5t-43.5 101.5zM964 1579q0 -38 28.5 -66t65.5 -28q38 0 66 28t28 66t-28 66t-66 28 t-66 -28.5t-28 -65.5z" />
<glyph unicode="&#x2dc;" horiz-adv-x="768" d="M26 1415v218q89 75 189 75q60 0 170 -41t170 -41q70 0 187 101v-215q-108 -79 -192 -78q-58 0 -167.5 41t-167.5 41q-72 0 -189 -101zM77 1521q70 46 138 46q58 0 167.5 -41t167.5 -41q62 -1 141 54v82q-70 -46 -136 -46q-60 0 -170 41t-170 41q-75 0 -138 -48v-88z" />
<glyph unicode="&#x2000;" horiz-adv-x="863" />
<glyph unicode="&#x2001;" horiz-adv-x="1727" />
<glyph unicode="&#x2002;" horiz-adv-x="863" />
<glyph unicode="&#x2003;" horiz-adv-x="1727" />
<glyph unicode="&#x2004;" horiz-adv-x="575" />
<glyph unicode="&#x2005;" horiz-adv-x="431" />
<glyph unicode="&#x2006;" horiz-adv-x="287" />
<glyph unicode="&#x2007;" horiz-adv-x="287" />
<glyph unicode="&#x2008;" horiz-adv-x="215" />
<glyph unicode="&#x2009;" horiz-adv-x="345" />
<glyph unicode="&#x200a;" horiz-adv-x="95" />
<glyph unicode="&#x2010;" horiz-adv-x="768" d="M26 538v290h716v-290h-716zM77 589h614v188h-614v-188z" />
<glyph unicode="&#x2011;" horiz-adv-x="768" d="M26 538v290h716v-290h-716zM77 589h614v188h-614v-188z" />
<glyph unicode="&#x2012;" horiz-adv-x="768" d="M26 538v290h716v-290h-716zM77 589h614v188h-614v-188z" />
<glyph unicode="&#x2013;" horiz-adv-x="1076" d="M26 538v290h1024v-290h-1024zM99 589h878v188h-878v-188z" />
<glyph unicode="&#x2014;" horiz-adv-x="2100" d="M26 538v290h2048v-290h-2048zM172 589h1756v188h-1756v-188z" />
<glyph unicode="&#x2018;" horiz-adv-x="426" d="M26 1024q0 99 63 212q70 123 158 145q5 2 43 8l-54 -181q72 -12 118.5 -63t46.5 -121q0 -75 -56.5 -131.5t-131.5 -56.5t-131 56.5t-56 131.5zM77 1024q0 -55 41 -96t95 -41q55 0 96 41t41 96q0 135 -183 137l45 145q-53 -41 -94 -127.5t-41 -154.5z" />
<glyph unicode="&#x2019;" horiz-adv-x="426" d="M26 1195q0 75 56 131t131 56t131.5 -56t56.5 -131q0 -99 -63 -212q-70 -123 -159 -145q-5 -2 -42 -9l54 181q-72 12 -118.5 63.5t-46.5 121.5zM77 1195q0 -135 182 -137l-44 -145q53 41 94 127.5t41 154.5q0 55 -41 95.5t-96 40.5t-95.5 -41t-40.5 -95z" />
<glyph unicode="&#x201a;" horiz-adv-x="426" d="M26 171q0 75 56 131t131 56t131.5 -56t56.5 -131q0 -99 -63 -212q-70 -123 -159 -145q-5 -2 -42 -9l54 181q-72 12 -118.5 63.5t-46.5 121.5zM77 171q0 -135 182 -137l-44 -145q53 41 94 127.5t41 154.5q0 55 -41 95.5t-96 40.5t-95.5 -41t-40.5 -95z" />
<glyph unicode="&#x201c;" horiz-adv-x="853" d="M26 1024q0 99 63 212q70 123 158 145q5 2 43 8l-54 -181q72 -12 118.5 -63t46.5 -121q0 -75 -56.5 -131.5t-131.5 -56.5t-131 56.5t-56 131.5zM77 1024q0 -55 41 -96t95 -41q55 0 96 41t41 96q0 135 -183 137l45 145q-53 -41 -94 -127.5t-41 -154.5zM452 1024 q0 99 63 212q70 123 159 145q5 2 43 8l-55 -181q72 -12 119 -63t47 -121q0 -75 -56.5 -131.5t-131.5 -56.5t-131.5 56.5t-56.5 131.5zM503 1024q0 -55 41 -96t96 -41t96 41t41 96q0 135 -183 137l44 145q-53 -41 -94 -127.5t-41 -154.5z" />
<glyph unicode="&#x201d;" horiz-adv-x="853" d="M26 1195q0 75 56 131t131 56t131.5 -56t56.5 -131q0 -99 -63 -212q-70 -123 -159 -145q-5 -2 -42 -9l54 181q-72 12 -118.5 63.5t-46.5 121.5zM77 1195q0 -135 182 -137l-44 -145q53 41 94 127.5t41 154.5q0 55 -41 95.5t-96 40.5t-95.5 -41t-40.5 -95zM452 1195 q0 75 56.5 131t131.5 56t131.5 -56t56.5 -131q0 -99 -63 -212q-70 -123 -159 -145q-5 -2 -43 -9l55 181q-72 12 -119 63.5t-47 121.5zM503 1195q0 -135 183 -137l-44 -145q53 41 94 127.5t41 154.5q0 55 -41 95.5t-96 40.5t-96 -41t-41 -95z" />
<glyph unicode="&#x201e;" horiz-adv-x="853" d="M26 171q0 75 56 131t131 56t131.5 -56t56.5 -131q0 -99 -63 -212q-70 -123 -159 -145q-5 -2 -42 -9l54 181q-72 12 -118.5 63.5t-46.5 121.5zM77 171q0 -135 182 -137l-44 -145q53 41 94 127.5t41 154.5q0 55 -41 95.5t-96 40.5t-95.5 -41t-40.5 -95zM452 171 q0 75 56.5 131t131.5 56t131.5 -56t56.5 -131q0 -99 -63 -212q-70 -123 -159 -145q-5 -2 -43 -9l55 181q-72 12 -119 63.5t-47 121.5zM503 171q0 -135 183 -137l-44 -145q53 41 94 127.5t41 154.5q0 55 -41 95.5t-96 40.5t-96 -41t-41 -95z" />
<glyph unicode="&#x2022;" horiz-adv-x="597" d="M26 683q0 111 81 192t192 81t192 -81t81 -192t-81 -192t-192 -81t-192 81t-81 192zM77 683q0 -90 65.5 -156t156.5 -66q90 0 156 66t66 156t-66 156t-156 66t-156 -66t-66 -156z" />
<glyph unicode="&#x2026;" horiz-adv-x="1280" d="M26 171q0 77 55.5 132t131.5 55q77 0 132.5 -55t55.5 -132t-55.5 -132.5t-132.5 -55.5t-132 55.5t-55 132.5zM77 171q0 -55 41 -96t95 -41q55 0 96 41t41 96t-41 95.5t-96 40.5t-95.5 -41t-40.5 -95zM452 171q0 77 55.5 132t132.5 55t132.5 -55t55.5 -132t-55.5 -132.5 t-132.5 -55.5t-132.5 55.5t-55.5 132.5zM503 171q0 -55 41 -96t96 -41t96 41t41 96t-41 95.5t-96 40.5t-96 -41t-41 -95zM879 171q0 77 55.5 132t132.5 55t132 -55t55 -132t-55.5 -132.5t-131.5 -55.5q-77 0 -132.5 55.5t-55.5 132.5zM930 171q0 -55 41 -96t96 -41t95.5 41 t40.5 96t-41 95.5t-95 40.5q-55 0 -96 -41t-41 -95z" />
<glyph unicode="&#x202f;" horiz-adv-x="345" />
<glyph unicode="&#x205f;" horiz-adv-x="431" />
<glyph unicode="&#x2122;" horiz-adv-x="1237" d="M43 1034v161h735l113 -161l113 161h191v-512h-191v160l-113 -160l-113 160v-160h-191v351h-176v-351h-193v351h-175z" />
<glyph unicode="&#xe000;" horiz-adv-x="1382" d="M0 0v1382h1382v-1382h-1382z" />
</font>
</defs>
</svg>
