<?xml version="1.0" standalone="no"?>
<!DOCTYPE svg PUBLIC "-//W3C//DTD SVG 1.1//EN" "http://www.w3.org/Graphics/SVG/1.1/DTD/svg11.dtd" >
<svg xmlns="http://www.w3.org/2000/svg">
<metadata></metadata>
<defs>
<font id="sf_distant_galaxyregular" horiz-adv-x="1536" >
<font-face units-per-em="2048" ascent="1707" descent="-341" />
<missing-glyph horiz-adv-x="768" />
<glyph horiz-adv-x="2048" />
<glyph horiz-adv-x="2048" />
<glyph unicode="&#xd;" horiz-adv-x="768" />
<glyph unicode=" "  horiz-adv-x="768" />
<glyph unicode="&#x09;" horiz-adv-x="768" />
<glyph unicode="&#xa0;" horiz-adv-x="768" />
<glyph unicode="!" horiz-adv-x="426" d="M43 171q0 70 50 120t120 50t120.5 -50t50.5 -120t-50.5 -120.5t-120.5 -50.5t-120 50.5t-50 120.5zM43 1365h341l-34 -938h-273z" />
<glyph unicode="&#x22;" horiz-adv-x="853" d="M43 1195q0 68 51 119t119 51t119.5 -51t51.5 -119q0 -60 -25.5 -129t-75.5 -132q-63 -77 -121 -81l51 171q-70 0 -120 50.5t-50 120.5zM469 1195q0 68 51.5 119t119.5 51t119.5 -51t51.5 -119q0 -60 -26 -129t-75 -132q-63 -77 -121 -81l51 171q-70 0 -120.5 50.5 t-50.5 120.5z" />
<glyph unicode="#" horiz-adv-x="1363" d="M43 427l44 256h213l38 213h-213l44 256h213l40 213h256l-40 -213h214l39 213h256l-39 -213h213l-44 -256h-214l-37 -213h213l-44 -256h-214l-39 -214h-256l39 214h-213l-39 -214h-256l39 214h-213zM556 683h214l37 213h-213z" />
<glyph unicode="$" horiz-adv-x="1450" d="M43 0v427h507q34 0 34 41q0 9 -5 12l-231 169q-135 99 -135 302q0 143 100 259t242 147v179h341v-171h512v-426h-543q-34 0 -34 -40q0 -10 5 -13l248 -186q154 -116 153 -311q0 -138 -104 -247q-97 -104 -237 -133v-180h-341v171h-512z" />
<glyph unicode="%" horiz-adv-x="1727" d="M43 1024q0 137 102 239t239 102t239 -102t102 -239t-102 -239t-239 -102t-239 102t-102 239zM256 1024q0 -51 38.5 -89.5t89.5 -38.5t89.5 38.5t38.5 89.5t-38.5 89.5t-89.5 38.5t-89.5 -38.5t-38.5 -89.5zM469 99l468 1283l321 -116l-468 -1283zM1002 341 q0 137 102.5 239.5t238.5 102.5q137 0 239 -102.5t102 -239.5t-102 -239t-239 -102t-239 102.5t-102 238.5zM1215 341q0 -51 38.5 -89.5t89.5 -38.5t89.5 38.5t38.5 89.5t-38.5 89.5t-89.5 38.5t-89.5 -38t-38.5 -90z" />
<glyph unicode="&#x26;" horiz-adv-x="1450" d="M43 425q0 145 85 258q-85 111 -85 251q0 177 124.5 304t301.5 127h939v-392h-853q-51 0 -52 -60q0 -51 52 -51h256v-359h-256q-51 0 -52 -56q0 -55 52 -54h420v256h433v-649h-939q-174 0 -300 125.5t-126 299.5z" />
<glyph unicode="'" horiz-adv-x="426" d="M43 1195q0 68 51 119t119 51t119.5 -51t51.5 -119q0 -60 -25.5 -129t-75.5 -132q-63 -77 -121 -81l51 171q-70 0 -120 50.5t-50 120.5z" />
<glyph unicode="(" horiz-adv-x="597" d="M43 683q0 485 256 853h256q-171 -401 -171 -853q0 -453 171 -854h-256q-256 369 -256 854z" />
<glyph unicode=")" horiz-adv-x="597" d="M43 -171q171 401 170 854q0 452 -170 853h256q256 -370 256 -853q0 -485 -256 -854h-256z" />
<glyph unicode="*" horiz-adv-x="778" d="M43 908l141 82l-141 82l102 177l142 -82v164h205v-164l141 82l103 -177l-142 -82l142 -82l-103 -178l-141 82v-163h-205v163l-142 -82z" />
<glyph unicode="+" horiz-adv-x="768" d="M43 555v256h213v213h256v-213h213v-256h-213v-214h-256v214h-213z" />
<glyph unicode="," horiz-adv-x="426" d="M43 171q0 68 51 119t119 51t119.5 -51t51.5 -119q0 -60 -25.5 -129t-75.5 -132q-63 -77 -121 -81l51 171q-70 0 -120 50.5t-50 120.5z" />
<glyph unicode="-" horiz-adv-x="768" d="M43 555v256h682v-256h-682z" />
<glyph unicode="." horiz-adv-x="426" d="M43 171q0 70 50 120t120 50t120.5 -50t50.5 -120t-50.5 -120.5t-120.5 -50.5t-120 50.5t-50 120.5z" />
<glyph unicode="/" horiz-adv-x="904" d="M0 -61l584 1604l321 -116l-584 -1604z" />
<glyph unicode="0" d="M43 683q0 287 222 488q213 195 503 194q290 0 503 -194q222 -201 222 -488t-222 -488q-213 -195 -503 -195t-503 195q-222 201 -222 488zM503 683q0 -104 79.5 -180t185.5 -76t185.5 76t79.5 180t-80.5 180t-184.5 76q-106 0 -185.5 -76t-79.5 -180z" />
<glyph unicode="1" horiz-adv-x="733" d="M43 973l170 392h478v-1365h-478v973h-170z" />
<glyph unicode="2" d="M43 0v432q0 169 128.5 299.5t297.5 130.5h512q51 0 52 51q0 60 -52 60h-853v392h939q171 0 298.5 -130.5t127.5 -300.5q0 -169 -128.5 -300t-297.5 -131h-512q-38 0 -48 -40q-3 -15 -4 -70h990v-393h-1450z" />
<glyph unicode="3" horiz-adv-x="1450" d="M43 0v393h853q51 0 51 54q0 56 -51 56h-512v359h512q51 0 51 51q0 60 -51 60h-853v392h938q177 0 302 -127t125 -304q0 -138 -85 -251q85 -113 85 -258q0 -174 -126.5 -299.5t-300.5 -125.5h-938z" />
<glyph unicode="4" d="M43 256l170 939h495l-94 -512h316v682h478v-682h85v-427h-85v-256h-478v256h-887z" />
<glyph unicode="5" d="M43 0v393h938q51 0 52 59q0 51 -52 51h-938v862h1365v-392h-905v-111h564q169 0 297.5 -130.5t128.5 -299.5q0 -171 -128 -301.5t-298 -130.5h-1024z" />
<glyph unicode="6" d="M43 430v509q0 169 128.5 297.5t297.5 128.5h939v-392h-853q-51 0 -52 -51q0 -60 52 -60h512q169 0 297.5 -130.5t128.5 -299.5q0 -171 -128 -301.5t-298 -130.5h-598q-169 0 -297.5 129.5t-128.5 300.5zM503 452q0 -60 52 -59h426q52 -1 52 59q0 51 -52 51h-426 q-51 0 -52 -51z" />
<glyph unicode="7" d="M43 0l645 973h-645v392h1450l-904 -1365h-546z" />
<glyph unicode="8" d="M43 398q0 188 150 309q-116 114 -116 278q0 159 136 273q128 108 290 107h530q166 0 293 -109q133 -114 133 -276q0 -159 -116 -273q150 -120 150 -311q0 -162 -130.5 -279t-295.5 -117h-598q-166 0 -293 114q-133 119 -133 284zM503 444q0 -51 52 -51h426q52 0 52 51 q0 60 -52 59h-426q-51 0 -52 -59zM538 913q0 -51 51 -51h358q51 0 51 51q0 60 -51 60h-358q-51 0 -51 -60z" />
<glyph unicode="9" d="M43 934q0 171 128 301t298 130h598q171 0 298.5 -129.5t127.5 -300.5v-508q0 -169 -128.5 -298t-297.5 -129h-939v393h853q51 0 52 51q0 60 -52 59h-512q-169 0 -297.5 131t-128.5 300zM503 913q0 -51 52 -51h426q52 0 52 51q0 60 -52 60h-426q-51 0 -52 -60z" />
<glyph unicode=":" horiz-adv-x="426" d="M43 171q0 70 50 120t120 50t120.5 -50t50.5 -120t-50.5 -120.5t-120.5 -50.5t-120 50.5t-50 120.5zM43 853q0 70 50 120.5t120 50.5t120.5 -50.5t50.5 -120.5t-50.5 -120t-120.5 -50t-120 50t-50 120z" />
<glyph unicode=";" horiz-adv-x="426" d="M43 171q0 68 51 119t119 51t119.5 -51t51.5 -119q0 -60 -25.5 -129t-75.5 -132q-63 -77 -121 -81l51 171q-70 0 -120 50.5t-50 120.5zM43 853q0 70 50 120.5t120 50.5t120.5 -50.5t50.5 -120.5t-50.5 -120t-120.5 -50t-120 50t-50 120z" />
<glyph unicode="&#x3c;" horiz-adv-x="597" d="M43 683l170 426h342l-171 -426l171 -427h-342z" />
<glyph unicode="=" horiz-adv-x="938" d="M43 384v256h853v-256h-853zM43 725v256h853v-256h-853z" />
<glyph unicode="&#x3e;" horiz-adv-x="597" d="M43 256l170 427l-170 426h341l171 -426l-171 -427h-341z" />
<glyph unicode="?" horiz-adv-x="1280" d="M43 171q0 70 50 120t120 50t120.5 -50t50.5 -120t-50.5 -120.5t-120.5 -50.5t-120 50.5t-50 120.5zM43 393v39q0 169 128.5 299.5t297.5 130.5h256q51 0 52 51q0 60 -52 60h-682v392h768q171 0 298.5 -130t127.5 -301q0 -169 -128.5 -300t-297.5 -131h-359 q-72 0 -68 -110h-341z" />
<glyph unicode="@" horiz-adv-x="1245" d="M43 683q0 237 171.5 408.5t408.5 171.5q236 0 408 -172t172 -408q0 -237 -171.5 -409t-408.5 -172t-408.5 171.5t-171.5 409.5zM213 683q0 -166 122 -288t288 -122t288 122t122 288t-122.5 287.5t-287.5 121.5q-166 0 -288 -122t-122 -287zM328 427l135 512h320l133 -512 h-204l-16 63h-146l-18 -63h-204zM580 606h86l-43 162z" />
<glyph unicode="A" horiz-adv-x="1621" d="M43 0l358 1365h819l359 -1365h-529l-45 171h-389l-44 -171h-529zM707 512h208l-104 398z" />
<glyph unicode="B" d="M43 0v1365h887q183 0 324 -107q154 -118 154 -294q0 -137 -84 -242q169 -114 169 -324q0 -176 -155 -292q-142 -106 -323 -106h-972zM521 341h358q41 0 71.5 31t30.5 72t-30.5 71.5t-71.5 30.5h-358v-205zM521 819h341q41 0 71.5 31t30.5 72t-30.5 71.5t-71.5 30.5h-341 v-205z" />
<glyph unicode="C" horiz-adv-x="1365" d="M43 683q0 287 222 488q212 194 500 194h3h555v-426h-555q-104 0 -184.5 -76t-80.5 -180t79.5 -180t185.5 -76h555v-427h-555q-290 0 -503 195q-222 201 -222 488z" />
<glyph unicode="D" d="M43 0v1365h725q290 0 503 -194q222 -201 222 -488t-222 -488q-213 -195 -503 -195h-725zM521 427h247q106 0 185.5 76t79.5 180t-80.5 180t-184.5 76h-247v-512z" />
<glyph unicode="E" horiz-adv-x="1450" d="M43 0v1365h1365v-426h-853v-77h512v-359h-512v-76h853v-427h-1365z" />
<glyph unicode="F" horiz-adv-x="1450" d="M43 0v1365h1365v-426h-853v-77h512v-359h-512v-503h-512z" />
<glyph unicode="G" d="M43 683q0 287 222 488q212 194 500 194h3q282 0 497 -186l-313 -312q-82 72 -184 72q-104 0 -184.5 -76t-80.5 -180t79.5 -180t185.5 -76h213v256h512v-683h-725q-290 0 -503 195q-222 201 -222 488z" />
<glyph unicode="H" d="M43 0v1365h512v-503h426v503h512v-1365h-512v503h-426v-503h-512z" />
<glyph unicode="I" horiz-adv-x="597" d="M43 0v1365h512v-1365h-512z" />
<glyph unicode="J" horiz-adv-x="896" d="M43 85q167 0 223 16q126 34 127 155v1109h460v-1280q0 -278 -244 -370q-145 -56 -481 -56z" />
<glyph unicode="K" d="M43 0v1365h512v-447l314 447h624l-498 -713l205 -205q20 -20 83 -20h210v-427h-358q-171 0 -341 171l-239 239v-410h-512z" />
<glyph unicode="L" horiz-adv-x="1365" d="M43 0v1365h512v-938h768v-427h-1280z" />
<glyph unicode="M" horiz-adv-x="1706" d="M43 0v1365h512l298 -426l299 426h512v-1365h-512v427l-299 -427l-298 427v-427h-512z" />
<glyph unicode="N" d="M43 0v1365h6q287 0 523 -99q266 -111 409 -327v426h512v-1365h-512q-9 220 -107 386q-118 201 -319 211v-597h-512z" />
<glyph unicode="O" d="M43 683q0 287 222 488q212 194 500 194h3q290 0 503 -194q222 -201 222 -488t-222 -488q-213 -195 -503 -195t-503 195q-222 201 -222 488zM503 683q0 -104 79.5 -180t185.5 -76t185.5 76t79.5 180t-80.5 180t-184.5 76q-106 0 -185.5 -76t-79.5 -180z" />
<glyph unicode="P" d="M43 0v734h836q41 0 71.5 30.5t30.5 71.5t-30.5 72t-71.5 31h-836v426h972q188 0 333 -145t145 -333t-145 -332.5t-333 -144.5h-460v-410h-512z" />
<glyph unicode="Q" horiz-adv-x="1621" d="M43 683q0 287 222 488q212 194 500 194h3q290 0 503 -194q222 -201 222 -488q0 -131 -51 -256h137v-427h-811q-290 0 -503 195q-222 201 -222 488zM503 683q0 -104 79.5 -180t185.5 -76t185.5 76t79.5 180t-80.5 180t-184.5 76t-184.5 -76t-80.5 -180z" />
<glyph unicode="R" horiz-adv-x="1621" d="M43 0v734h836q41 0 71.5 30.5t30.5 71.5t-30.5 72t-71.5 31h-836v426h972q189 0 333.5 -136.5t144.5 -323.5q0 -138 -82 -256t-211 -168q31 -54 87 -54h2h290v-427h-444q-171 0 -341 171l-239 239v-410h-512z" />
<glyph unicode="S" horiz-adv-x="1450" d="M43 0v427h507q34 0 34 41q0 9 -5 12l-231 169q-135 99 -135 302q0 167 130 290.5t297 123.5h768v-426h-543q-34 0 -34 -40q0 -10 5 -13l248 -186q153 -115 153 -308q0 -165 -132 -278.5t-296 -113.5h-766z" />
<glyph unicode="T" d="M43 939v426h1450v-426h-469v-939h-512v939h-469z" />
<glyph unicode="U" d="M43 683v682h460v-682q0 -104 79.5 -180t185.5 -76q104 0 184.5 76t80.5 180v682h460v-682q0 -287 -222 -488q-213 -195 -503 -195t-503 195q-222 201 -222 488z" />
<glyph unicode="V" horiz-adv-x="1621" d="M43 1365h529l239 -909l239 909h529l-359 -1365h-819z" />
<glyph unicode="W" horiz-adv-x="2201" d="M43 1365h529l119 -455l120 455h580l119 -455l120 455h529l-358 -1365h-581l-119 456l-120 -456h-580z" />
<glyph unicode="X" horiz-adv-x="1792" d="M43 0l537 683l-537 682h631l222 -281l222 281h631l-537 -682l537 -683h-631l-222 282l-222 -282h-631z" />
<glyph unicode="Y" horiz-adv-x="1689" d="M43 1365h580l222 -401l222 401h580l-546 -938v-427h-512v427z" />
<glyph unicode="Z" d="M43 0l621 939h-621v426h1450l-621 -938h621v-427h-1450z" />
<glyph unicode="[" horiz-adv-x="597" d="M43 -171v1707h512v-341h-171v-1024h171v-342h-512z" />
<glyph unicode="\" horiz-adv-x="904" d="M0 1427l321 116l584 -1604l-321 -116z" />
<glyph unicode="]" horiz-adv-x="597" d="M43 -171v342h170v1024h-170v341h512v-1707h-512z" />
<glyph unicode="^" horiz-adv-x="972" d="M43 768l341 597h205l341 -597h-205l-239 418l-239 -418h-204z" />
<glyph unicode="_" horiz-adv-x="682" d="M0 0v256h683v-256h-683z" />
<glyph unicode="`" horiz-adv-x="853" d="M43 1536l170 171l598 -222v-34z" />
<glyph unicode="a" horiz-adv-x="1621" d="M43 0l358 1365h819l359 -1365h-529l-45 171h-389l-44 -171h-529zM707 512h208l-104 398z" />
<glyph unicode="b" d="M43 0v1365h887q183 0 324 -107q154 -118 154 -294q0 -137 -84 -242q169 -114 169 -324q0 -176 -155 -292q-142 -106 -323 -106h-972zM521 341h358q41 0 71.5 31t30.5 72t-30.5 71.5t-71.5 30.5h-358v-205zM521 819h341q41 0 71.5 31t30.5 72t-30.5 71.5t-71.5 30.5h-341 v-205z" />
<glyph unicode="c" horiz-adv-x="1365" d="M43 683q0 287 222 488q212 194 500 194h3h555v-426h-555q-104 0 -184.5 -76t-80.5 -180t79.5 -180t185.5 -76h555v-427h-555q-290 0 -503 195q-222 201 -222 488z" />
<glyph unicode="d" d="M43 0v1365h725q290 0 503 -194q222 -201 222 -488t-222 -488q-213 -195 -503 -195h-725zM521 427h247q106 0 185.5 76t79.5 180t-80.5 180t-184.5 76h-247v-512z" />
<glyph unicode="e" horiz-adv-x="1450" d="M43 0v1365h1365v-426h-853v-77h512v-359h-512v-76h853v-427h-1365z" />
<glyph unicode="f" horiz-adv-x="1450" d="M43 0v1365h1365v-426h-853v-77h512v-359h-512v-503h-512z" />
<glyph unicode="g" d="M43 683q0 287 222 488q212 194 500 194h3h725v-426h-725q-104 0 -184.5 -76t-80.5 -180t79.5 -180t185.5 -76h213v256h512v-683h-725q-290 0 -503 195q-222 201 -222 488z" />
<glyph unicode="h" d="M43 0v1365h512v-503h426v503h512v-1365h-512v503h-426v-503h-512z" />
<glyph unicode="i" horiz-adv-x="597" d="M43 0v1365h512v-1365h-512z" />
<glyph unicode="j" horiz-adv-x="896" d="M43 85q169 0 225 16q125 34 125 155v1109h460v-1280q0 -278 -244 -372q-144 -54 -469 -54h-12z" />
<glyph unicode="k" d="M43 0v1365h512v-447l314 447h624l-498 -713l205 -205q20 -20 83 -20h210v-427h-358q-171 0 -341 171l-239 239v-410h-512z" />
<glyph unicode="l" horiz-adv-x="1365" d="M43 0v1365h512v-938h768v-427h-1280z" />
<glyph unicode="m" horiz-adv-x="1706" d="M43 0v1365h512l298 -426l299 426h512v-1365h-512v427l-299 -427l-298 427v-427h-512z" />
<glyph unicode="n" d="M43 0v1365h512l426 -546v546h512v-1365h-512l-426 546v-546h-512z" />
<glyph unicode="o" d="M43 683q0 287 222 488q212 194 500 194h3q290 0 503 -194q222 -201 222 -488t-222 -488q-213 -195 -503 -195t-503 195q-222 201 -222 488zM503 683q0 -104 79.5 -180t185.5 -76t185.5 76t79.5 180t-80.5 180t-184.5 76q-106 0 -185.5 -76t-79.5 -180z" />
<glyph unicode="p" d="M43 0v1365h972q188 0 333 -145t145 -333t-145 -332.5t-333 -144.5h-460v-410h-512zM555 785h324q41 0 71.5 30.5t30.5 71.5t-30.5 72t-71.5 31h-324v-205z" />
<glyph unicode="q" horiz-adv-x="1621" d="M43 683q0 287 222 488q212 194 500 194h3q290 0 503 -194q222 -201 222 -488q0 -131 -51 -256h137v-427h-811q-290 0 -503 195q-222 201 -222 488zM503 683q0 -104 79.5 -180t185.5 -76t185.5 76t79.5 180t-80.5 180t-184.5 76t-184.5 -76t-80.5 -180z" />
<glyph unicode="r" horiz-adv-x="1621" d="M43 0v1365h972q189 0 333.5 -136.5t144.5 -323.5q0 -138 -82 -256t-211 -168q30 -54 87 -54h2h290v-427h-444q-171 0 -341 171l-239 239v-410h-512zM555 785h324q41 0 71.5 30.5t30.5 71.5t-30.5 72t-71.5 31h-324v-205z" />
<glyph unicode="s" horiz-adv-x="1450" d="M43 0v427h507q34 0 34 41q0 9 -5 12l-231 169q-135 99 -135 302q0 167 130 290.5t297 123.5h768v-426h-543q-34 0 -34 -40q0 -10 5 -13l248 -186q153 -115 153 -308q0 -165 -132 -278.5t-296 -113.5h-766z" />
<glyph unicode="t" d="M43 939v426h1450v-426h-469v-939h-512v939h-469z" />
<glyph unicode="u" d="M43 683v682h460v-682q0 -104 79.5 -180t185.5 -76q104 0 184.5 76t80.5 180v682h460v-682q0 -287 -222 -488q-213 -195 -503 -195t-503 195q-222 201 -222 488z" />
<glyph unicode="v" horiz-adv-x="1621" d="M43 1365h529l239 -909l239 909h529l-359 -1365h-819z" />
<glyph unicode="w" horiz-adv-x="2201" d="M43 1365h529l119 -455l120 455h580l119 -455l120 455h529l-358 -1365h-581l-119 456l-120 -456h-580z" />
<glyph unicode="x" horiz-adv-x="1792" d="M43 0l537 683l-537 682h631l222 -281l222 281h631l-537 -682l537 -683h-631l-222 282l-222 -282h-631z" />
<glyph unicode="y" horiz-adv-x="1689" d="M43 1365h580l222 -401l222 401h580l-546 -938v-427h-512v427z" />
<glyph unicode="z" d="M43 0l621 939h-621v426h1450l-621 -938h621v-427h-1450z" />
<glyph unicode="{" horiz-adv-x="768" d="M43 597v154q70 3 120 52.5t50 118.5v273q0 137 102.5 239t239.5 102h170v-341h-170v-342q0 -68 -50.5 -117.5t-120.5 -52.5q70 -3 120.5 -53t50.5 -118v-341h170v-342h-170q-137 0 -239.5 102.5t-102.5 239.5v256q0 68 -50 117.5t-120 52.5z" />
<glyph unicode="|" horiz-adv-x="472" d="M43 -171v1707h341v-1707h-341z" />
<glyph unicode="}" horiz-adv-x="768" d="M43 -171v342h170v341q0 68 50.5 117.5t120.5 53.5q-70 3 -120.5 52.5t-50.5 117.5v342h-170v341h170q137 0 239.5 -102.5t102.5 -238.5v-273q0 -68 50 -118t120 -53v-154q-70 -3 -120 -52.5t-50 -117.5v-256q0 -137 -102.5 -239.5t-239.5 -102.5h-170z" />
<glyph unicode="~" horiz-adv-x="768" d="M43 1451v174q77 67 172 66q60 0 170 -41t170 -41q79 0 170 82v-170q-96 -70 -175 -70q-58 0 -167.5 41t-167.5 41q-80 0 -172 -82z" />
<glyph unicode="&#xa1;" horiz-adv-x="426" d="M43 0l34 939h273l34 -939h-341zM43 1195q0 70 50 120t120 50t120.5 -50t50.5 -120t-50.5 -120.5t-120.5 -50.5t-120 50.5t-50 120.5z" />
<glyph unicode="&#xa2;" horiz-adv-x="1365" d="M43 683q0 234 155 420q150 177 382 238v195h342v-171h401v-426h-555q-104 0 -184.5 -76t-80.5 -180t79.5 -180t185.5 -76h555v-427h-401v-171h-342v195q-232 60 -382 239q-155 186 -155 420z" />
<glyph unicode="&#xa5;" horiz-adv-x="1689" d="M43 1365h580l222 -401l222 401h580l-299 -512h214v-256h-362l-50 -85h412v-256h-461v-256h-512v256h-461v256h411l-49 85h-362v256h213z" />
<glyph unicode="&#xa8;" horiz-adv-x="768" d="M43 1579q0 53 37.5 90.5t90.5 37.5q51 0 89.5 -38.5t38.5 -89.5q0 -53 -37.5 -90.5t-90.5 -37.5q-51 0 -89.5 38t-38.5 90zM469 1579q0 53 37.5 90.5t90.5 37.5q51 0 89.5 -38.5t38.5 -89.5q0 -53 -37.5 -90.5t-90.5 -37.5q-51 0 -89.5 38t-38.5 90z" />
<glyph unicode="&#xa9;" horiz-adv-x="1245" d="M43 683q0 237 171.5 408.5t408.5 171.5q236 0 408 -172t172 -408q0 -237 -171.5 -409t-408.5 -172t-408.5 171.5t-171.5 409.5zM213 683q0 -166 122 -288t288 -122t288 122t122 288t-122.5 287.5t-287.5 121.5q-166 0 -288 -122t-122 -287zM314 683q0 108 92 184 q85 72 196 72h193v-161h-193q-43 0 -78.5 -27t-35.5 -68t36 -68.5t78 -27.5h193v-160h-193q-109 0 -196 71q-92 77 -92 185z" />
<glyph unicode="&#xad;" horiz-adv-x="768" d="M43 555v256h682v-256h-682z" />
<glyph unicode="&#xae;" horiz-adv-x="1245" d="M43 683q0 237 171.5 408.5t408.5 171.5q236 0 408 -172t172 -408q0 -237 -171.5 -409t-408.5 -172t-408.5 171.5t-171.5 409.5zM213 683q0 -166 122 -288t288 -122t288 122t122 288t-122.5 287.5t-287.5 121.5q-166 0 -288 -122t-122 -287zM335 427v512h365 q70 0 124.5 -51.5t54.5 -121.5q0 -114 -111 -158q12 -20 34 -21h109v-160h-167q-60 0 -123 53q-15 15 -94 100v-153h-192zM527 720h122q37 0 37 39t-37 40h-122v-79z" />
<glyph unicode="&#xb0;" horiz-adv-x="469" d="M43 1172q0 79 56 136t135 57t136 -57t57 -136t-57.5 -135t-135.5 -56q-79 0 -135 56.5t-56 134.5zM143 1172q0 -38 27.5 -64t63.5 -26t63 27t27 63t-27 63.5t-63 27.5t-63.5 -27.5t-27.5 -63.5z" />
<glyph unicode="&#xb1;" horiz-adv-x="768" d="M43 0v256h682v-256h-682zM43 555v256h213v213h256v-213h213v-256h-213v-214h-256v214h-213z" />
<glyph unicode="&#xb4;" horiz-adv-x="853" d="M43 1451v34l597 222l171 -171z" />
<glyph unicode="&#xb6;" d="M43 887q0 188 145 333t333 145h972v-375h-119v-990h-341v990h-171v-990h-341v410q-189 2 -333.5 145t-144.5 332z" />
<glyph unicode="&#xbc;" horiz-adv-x="1534" d="M43 1169l85 196h239v-682h-239v486h-85zM241 99l467 1283l321 -116l-468 -1283zM766 111l86 469h247l-46 -256h157v342h239v-342h43v-213h-43v-128h-239v128h-444z" />
<glyph unicode="&#xbd;" horiz-adv-x="1619" d="M43 1169l85 196h239v-682h-239v486h-85zM241 99l467 1283l321 -116l-468 -1283zM852 0v215q0 85 64 150t149 65h256q26 0 26 26q0 31 -26 30h-427v197h470q85 0 149 -66t64 -151t-64 -150t-149 -65h-256q-27 0 -26 -55h495v-196h-725z" />
<glyph unicode="&#xbe;" horiz-adv-x="1841" d="M43 683v196h426q26 0 26 27q0 29 -26 29h-256v179h256q26 0 26 26q0 29 -26 29h-426v196h469q89 0 151 -63t62 -152q0 -70 -42 -126q42 -56 42 -128q0 -87 -63 -150t-150 -63h-469zM531 99l467 1283l321 -116l-467 -1283zM1073 128l86 469h247l-46 -256h157v342h239v-342 h43v-213h-43v-128h-239v128h-444z" />
<glyph unicode="&#xbf;" horiz-adv-x="1280" d="M43 432q0 169 128.5 299.5t297.5 130.5h359q72 0 68 111h341v-39q0 -169 -128.5 -300t-297.5 -131h-256q-51 0 -52 -51q0 -60 52 -59h682v-393h-768q-171 0 -298.5 130.5t-127.5 301.5zM896 1195q0 70 50.5 120t120.5 50t120 -50t50 -120t-50 -120.5t-120 -50.5 t-120.5 50.5t-50.5 120.5z" />
<glyph unicode="&#xc0;" horiz-adv-x="1621" d="M43 0l358 1365h819l359 -1365h-529l-45 171h-389l-44 -171h-529zM256 1536l171 171l597 -222v-34zM707 512h208l-104 398z" />
<glyph unicode="&#xc1;" horiz-adv-x="1621" d="M43 0l358 1365h819l359 -1365h-529l-45 171h-389l-44 -171h-529zM597 1451v34l598 222l170 -171zM707 512h208l-104 398z" />
<glyph unicode="&#xc2;" horiz-adv-x="1621" d="M43 0l358 1365h819l359 -1365h-529l-45 171h-389l-44 -171h-529zM314 1451l341 256h311l341 -256h-276l-220 165l-220 -165h-277zM707 512h208l-104 398z" />
<glyph unicode="&#xc3;" horiz-adv-x="1621" d="M43 0l358 1365h819l359 -1365h-529l-45 171h-389l-44 -171h-529zM469 1451v174q77 67 173 66q60 0 170 -41t169 -41q79 0 171 82v-170q-96 -70 -176 -70q-58 0 -167 41t-167 41q-80 0 -173 -82zM707 512h208l-104 398z" />
<glyph unicode="&#xc4;" horiz-adv-x="1621" d="M43 0l358 1365h819l359 -1365h-529l-45 171h-389l-44 -171h-529zM469 1579q0 51 38.5 89.5t89.5 38.5q53 0 90.5 -37.5t37.5 -90.5t-37.5 -90.5t-90.5 -37.5q-51 0 -89.5 38t-38.5 90zM707 512h208l-104 398zM896 1579q0 51 38.5 89.5t89.5 38.5q53 0 90.5 -37.5 t37.5 -90.5t-37.5 -90.5t-90.5 -37.5q-51 0 -89.5 38t-38.5 90z" />
<glyph unicode="&#xc5;" horiz-adv-x="1621" d="M43 0l358 1365h819l359 -1365h-529l-45 171h-389l-44 -171h-529zM683 1579q0 51 38 89.5t90 38.5q51 0 89.5 -38.5t38.5 -89.5t-38.5 -89.5t-89.5 -38.5t-89.5 38t-38.5 90zM707 512h208l-104 398zM751 1579q0 -60 60 -60q24 0 41.5 18t17.5 42t-17.5 41.5t-41.5 17.5 q-60 0 -60 -59z" />
<glyph unicode="&#xc6;" horiz-adv-x="2457" d="M43 0l710 1365h1662v-426h-853v-77h512v-359h-512v-76h853v-427h-1365v171h-390l-88 -171h-529zM821 478h229v432z" />
<glyph unicode="&#xc8;" horiz-adv-x="1450" d="M43 0v1365h1365v-426h-853v-77h512v-359h-512v-76h853v-427h-1365zM171 1536l170 171l598 -222v-34z" />
<glyph unicode="&#xc9;" horiz-adv-x="1450" d="M43 0v1365h1365v-426h-853v-77h512v-359h-512v-76h853v-427h-1365zM512 1451v34l597 222l171 -171z" />
<glyph unicode="&#xca;" horiz-adv-x="1450" d="M43 0v1365h1365v-426h-853v-77h512v-359h-512v-76h853v-427h-1365zM229 1451l341 256h311l341 -256h-277l-220 165l-220 -165h-276z" />
<glyph unicode="&#xcb;" horiz-adv-x="1450" d="M43 0v1365h1365v-426h-853v-77h512v-359h-512v-76h853v-427h-1365zM384 1579q0 51 38.5 89.5t89.5 38.5q53 0 90.5 -37.5t37.5 -90.5q0 -51 -38.5 -89.5t-89.5 -38.5t-89.5 38t-38.5 90zM811 1579q0 51 38 89.5t90 38.5q53 0 90.5 -37.5t37.5 -90.5q0 -51 -38.5 -89.5 t-89.5 -38.5t-89.5 38t-38.5 90z" />
<glyph unicode="&#xcc;" horiz-adv-x="597" d="M-256 1536l171 171l597 -222v-34zM43 0v1365h512v-1365h-512z" />
<glyph unicode="&#xcd;" horiz-adv-x="597" d="M43 0v1365h512v-1365h-512zM85 1451v34l598 222l170 -171z" />
<glyph unicode="&#xce;" horiz-adv-x="597" d="M-198 1451l341 256h311l341 -256h-276l-220 165l-220 -165h-277zM43 0v1365h512v-1365h-512z" />
<glyph unicode="&#xcf;" horiz-adv-x="597" d="M-43 1579q0 51 38.5 89.5t89.5 38.5q53 0 90.5 -37.5t37.5 -90.5q0 -51 -38 -89.5t-90 -38.5q-51 0 -89.5 38t-38.5 90zM43 0v1365h512v-1365h-512zM384 1579q0 51 38.5 89.5t89.5 38.5q53 0 90.5 -37.5t37.5 -90.5q0 -51 -38.5 -89.5t-89.5 -38.5t-89.5 38t-38.5 90z " />
<glyph unicode="&#xd1;" d="M43 0v1365h6q287 0 523 -99q266 -111 409 -327v426h512v-1365h-512q-9 220 -107 386q-118 201 -319 211v-597h-512zM427 1451v174q77 67 172 66q60 0 170 -41t170 -41q79 0 170 82v-170q-96 -70 -175 -70q-58 0 -167.5 41t-167.5 41q-80 0 -172 -82z" />
<glyph unicode="&#xd2;" d="M43 683q0 287 222 488q213 195 503 194q290 0 503 -194q222 -201 222 -488t-222 -488q-213 -195 -503 -195t-503 195q-222 201 -222 488zM213 1536l171 171l597 -222v-34zM503 683q0 -104 79.5 -180t185.5 -76t185.5 76t79.5 180t-80.5 180t-184.5 76q-106 0 -185.5 -76 t-79.5 -180z" />
<glyph unicode="&#xd3;" d="M43 683q0 287 222 488q213 195 503 194q290 0 503 -194q222 -201 222 -488t-222 -488q-213 -195 -503 -195t-503 195q-222 201 -222 488zM503 683q0 -104 79.5 -180t185.5 -76t185.5 76t79.5 180t-80.5 180t-184.5 76q-106 0 -185.5 -76t-79.5 -180zM555 1451v34l597 222 l171 -171z" />
<glyph unicode="&#xd4;" d="M43 683q0 287 222 488q213 195 503 194q290 0 503 -194q222 -201 222 -488t-222 -488q-213 -195 -503 -195t-503 195q-222 201 -222 488zM271 1451l342 256h310l342 -256h-277l-220 165l-220 -165h-277zM503 683q0 -104 79.5 -180t185.5 -76t185.5 76t79.5 180t-80.5 180 t-184.5 76t-184.5 -76t-80.5 -180z" />
<glyph unicode="&#xd5;" d="M43 683q0 287 222 488q213 195 503 194q290 0 503 -194q222 -201 222 -488t-222 -488q-213 -195 -503 -195t-503 195q-222 201 -222 488zM427 1451v174q77 67 172 66q60 0 170 -41t170 -41q79 0 170 82v-170q-96 -70 -175 -70q-58 0 -167.5 41t-167.5 41q-80 0 -172 -82z M503 683q0 -104 79.5 -180t185.5 -76t185.5 76t79.5 180t-80.5 180t-184.5 76q-106 0 -185.5 -76t-79.5 -180z" />
<glyph unicode="&#xd6;" d="M43 683q0 287 222 488q213 195 503 194q290 0 503 -194q222 -201 222 -488t-222 -488q-213 -195 -503 -195t-503 195q-222 201 -222 488zM427 1579q0 51 38 89.5t90 38.5q53 0 90.5 -37.5t37.5 -90.5t-37.5 -90.5t-90.5 -37.5q-51 0 -89.5 38t-38.5 90zM503 683 q0 -104 79.5 -180t185.5 -76t185.5 76t79.5 180t-80.5 180t-184.5 76q-106 0 -185.5 -76t-79.5 -180zM853 1579q0 51 38.5 89.5t89.5 38.5q53 0 90.5 -37.5t37.5 -90.5t-37.5 -90.5t-90.5 -37.5q-51 0 -89.5 38t-38.5 90z" />
<glyph unicode="&#xd7;" horiz-adv-x="747" d="M43 532l150 151l-150 150l181 181l150 -150l150 150l181 -181l-150 -150l150 -151l-181 -180l-150 150l-150 -150z" />
<glyph unicode="&#xd8;" d="M-46 49l230 231q-142 179 -141 403q0 287 222 488q213 195 503 194q208 0 391 -111l242 243l181 -181l-230 -231q142 -179 141 -402q0 -287 -222 -488q-213 -195 -503 -195q-208 0 -391 111l-242 -242zM503 683q0 -34 12 -72l320 319q-32 9 -67 9q-104 0 -184.5 -76 t-80.5 -180zM701 435q32 -9 67 -8q106 0 185.5 76t79.5 180q0 36 -12 71z" />
<glyph unicode="&#xd9;" d="M43 683v682h460v-682q0 -104 79.5 -180t185.5 -76q104 0 184.5 76t80.5 180v682h460v-682q0 -287 -222 -488q-213 -195 -503 -195t-503 195q-222 201 -222 488zM213 1536l171 171l597 -222v-34z" />
<glyph unicode="&#xda;" d="M43 683v682h460v-682q0 -104 79.5 -180t185.5 -76q104 0 184.5 76t80.5 180v682h460v-682q0 -287 -222 -488q-213 -195 -503 -195t-503 195q-222 201 -222 488zM555 1451v34l597 222l171 -171z" />
<glyph unicode="&#xdb;" d="M43 683v682h460v-682q0 -104 79.5 -180t185.5 -76q104 0 184.5 76t80.5 180v682h460v-682q0 -287 -222 -488q-213 -195 -503 -195t-503 195q-222 201 -222 488zM271 1451l342 256h310l342 -256h-277l-220 165l-220 -165h-277z" />
<glyph unicode="&#xdc;" d="M43 683v682h460v-682q0 -104 79.5 -180t185.5 -76q104 0 184.5 76t80.5 180v682h460v-682q0 -287 -222 -488q-213 -195 -503 -195t-503 195q-222 201 -222 488zM427 1579q0 51 38 89.5t90 38.5q51 0 89.5 -38.5t38.5 -89.5q0 -53 -37.5 -90.5t-90.5 -37.5q-51 0 -89.5 38 t-38.5 90zM853 1579q0 51 38.5 89.5t89.5 38.5t89.5 -38.5t38.5 -89.5q0 -53 -37.5 -90.5t-90.5 -37.5q-51 0 -89.5 38t-38.5 90z" />
<glyph unicode="&#xdd;" horiz-adv-x="1689" d="M43 1365h580l222 -401l222 401h580l-546 -938v-427h-512v427zM631 1451v34l598 222l170 -171z" />
<glyph unicode="&#xe0;" horiz-adv-x="1621" d="M43 0l358 1365h819l359 -1365h-529l-45 171h-389l-44 -171h-529zM256 1536l171 171l597 -222v-34zM707 512h208l-104 398z" />
<glyph unicode="&#xe1;" horiz-adv-x="1621" d="M43 0l358 1365h819l359 -1365h-529l-45 171h-389l-44 -171h-529zM597 1451v34l598 222l170 -171zM707 512h208l-104 398z" />
<glyph unicode="&#xe2;" horiz-adv-x="1621" d="M43 0l358 1365h819l359 -1365h-529l-45 171h-389l-44 -171h-529zM314 1451l341 256h311l341 -256h-276l-220 165l-220 -165h-277zM707 512h208l-104 398z" />
<glyph unicode="&#xe3;" horiz-adv-x="1621" d="M43 0l358 1365h819l359 -1365h-529l-45 171h-389l-44 -171h-529zM469 1451v174q77 67 173 66q60 0 170 -41t169 -41q79 0 171 82v-170q-96 -70 -176 -70q-58 0 -167 41t-167 41q-80 0 -173 -82zM707 512h208l-104 398z" />
<glyph unicode="&#xe4;" horiz-adv-x="1621" d="M43 0l358 1365h819l359 -1365h-529l-45 171h-389l-44 -171h-529zM469 1579q0 53 37.5 90.5t90.5 37.5t90.5 -37.5t37.5 -90.5q0 -51 -38 -89.5t-90 -38.5q-51 0 -89.5 38t-38.5 90zM707 512h208l-104 398zM896 1579q0 53 37.5 90.5t90.5 37.5t90.5 -37.5t37.5 -90.5 q0 -51 -38.5 -89.5t-89.5 -38.5t-89.5 38t-38.5 90z" />
<glyph unicode="&#xe5;" horiz-adv-x="1621" d="M43 0l358 1365h819l359 -1365h-529l-45 171h-389l-44 -171h-529zM683 1579q0 51 38 89.5t90 38.5q51 0 89.5 -38.5t38.5 -89.5t-38.5 -89.5t-89.5 -38.5t-89.5 38t-38.5 90zM707 512h208l-104 398zM751 1579q0 -60 60 -60q24 0 41.5 18t17.5 42t-17.5 41.5t-41.5 17.5 q-60 0 -60 -59z" />
<glyph unicode="&#xe6;" horiz-adv-x="2457" d="M43 0l710 1365h1662v-426h-853v-77h512v-359h-512v-76h853v-427h-1365v171h-390l-88 -171h-529zM821 478h229v432z" />
<glyph unicode="&#xe8;" horiz-adv-x="1450" d="M43 0v1365h1365v-426h-853v-77h512v-359h-512v-76h853v-427h-1365zM171 1536l170 171l598 -222v-34z" />
<glyph unicode="&#xe9;" horiz-adv-x="1450" d="M43 0v1365h1365v-426h-853v-77h512v-359h-512v-76h853v-427h-1365zM512 1451v34l597 222l171 -171z" />
<glyph unicode="&#xea;" horiz-adv-x="1450" d="M43 0v1365h1365v-426h-853v-77h512v-359h-512v-76h853v-427h-1365zM229 1451l341 256h311l341 -256h-277l-220 165l-220 -165h-276z" />
<glyph unicode="&#xeb;" horiz-adv-x="1450" d="M43 0v1365h1365v-426h-853v-77h512v-359h-512v-76h853v-427h-1365zM384 1579q0 51 38.5 89.5t89.5 38.5t89.5 -38.5t38.5 -89.5t-38.5 -89.5t-89.5 -38.5t-89.5 38t-38.5 90zM811 1579q0 51 38 89.5t90 38.5q51 0 89.5 -38.5t38.5 -89.5t-38.5 -89.5t-89.5 -38.5 t-89.5 38t-38.5 90z" />
<glyph unicode="&#xec;" horiz-adv-x="597" d="M-256 1536l171 171l597 -222v-34zM43 0v1365h512v-1365h-512z" />
<glyph unicode="&#xed;" horiz-adv-x="597" d="M43 0v1365h512v-1365h-512zM85 1451v34l598 222l170 -171z" />
<glyph unicode="&#xee;" horiz-adv-x="597" d="M-198 1451l341 256h311l341 -256h-276l-220 165l-220 -165h-277zM43 0v1365h512v-1365h-512z" />
<glyph unicode="&#xef;" horiz-adv-x="597" d="M-43 1579q0 53 37.5 90.5t90.5 37.5q51 0 89.5 -38.5t38.5 -89.5t-38 -89.5t-90 -38.5q-51 0 -89.5 38t-38.5 90zM43 0v1365h512v-1365h-512zM384 1579q0 53 37.5 90.5t90.5 37.5q51 0 89.5 -38.5t38.5 -89.5t-38.5 -89.5t-89.5 -38.5t-89.5 38t-38.5 90z" />
<glyph unicode="&#xf1;" d="M43 0v1365h512l426 -546v546h512v-1365h-512l-426 546v-546h-512zM427 1451v174q77 67 172 66q60 0 170 -41t170 -41q79 0 170 82v-170q-96 -70 -175 -70q-58 0 -167.5 41t-167.5 41q-80 0 -172 -82z" />
<glyph unicode="&#xf2;" d="M43 683q0 287 222 488q213 195 503 194q290 0 503 -194q222 -201 222 -488t-222 -488q-213 -195 -503 -195t-503 195q-222 201 -222 488zM213 1536l171 171l597 -222v-34zM503 683q0 -104 79.5 -180t185.5 -76t185.5 76t79.5 180t-80.5 180t-184.5 76q-106 0 -185.5 -76 t-79.5 -180z" />
<glyph unicode="&#xf3;" d="M43 683q0 287 222 488q213 195 503 194q290 0 503 -194q222 -201 222 -488t-222 -488q-213 -195 -503 -195t-503 195q-222 201 -222 488zM503 683q0 -104 79.5 -180t185.5 -76t185.5 76t79.5 180t-80.5 180t-184.5 76q-106 0 -185.5 -76t-79.5 -180zM555 1451v34l597 222 l171 -171z" />
<glyph unicode="&#xf4;" d="M43 683q0 287 222 488q213 195 503 194q290 0 503 -194q222 -201 222 -488t-222 -488q-213 -195 -503 -195t-503 195q-222 201 -222 488zM271 1451l342 256h310l342 -256h-277l-220 165l-220 -165h-277zM503 683q0 -104 79.5 -180t185.5 -76t185.5 76t79.5 180t-80.5 180 t-184.5 76t-184.5 -76t-80.5 -180z" />
<glyph unicode="&#xf5;" d="M43 683q0 287 222 488q213 195 503 194q290 0 503 -194q222 -201 222 -488t-222 -488q-213 -195 -503 -195t-503 195q-222 201 -222 488zM427 1451v174q77 67 172 66q60 0 170 -41t170 -41q79 0 170 82v-170q-96 -70 -175 -70q-58 0 -167.5 41t-167.5 41q-80 0 -172 -82z M503 683q0 -104 79.5 -180t185.5 -76t185.5 76t79.5 180t-80.5 180t-184.5 76q-106 0 -185.5 -76t-79.5 -180z" />
<glyph unicode="&#xf6;" d="M43 683q0 287 222 488q213 195 503 194q290 0 503 -194q222 -201 222 -488t-222 -488q-213 -195 -503 -195t-503 195q-222 201 -222 488zM427 1579q0 51 38 89.5t90 38.5q51 0 89.5 -38.5t38.5 -89.5q0 -53 -37.5 -90.5t-90.5 -37.5q-51 0 -89.5 38t-38.5 90zM503 683 q0 -104 79.5 -180t185.5 -76t185.5 76t79.5 180t-80.5 180t-184.5 76q-106 0 -185.5 -76t-79.5 -180zM853 1579q0 51 38.5 89.5t89.5 38.5t89.5 -38.5t38.5 -89.5q0 -53 -37.5 -90.5t-90.5 -37.5q-51 0 -89.5 38t-38.5 90z" />
<glyph unicode="&#xf7;" horiz-adv-x="768" d="M43 555v256h682v-256h-682zM256 393q0 51 38.5 89.5t89.5 38.5t89.5 -38.5t38.5 -89.5t-38.5 -89.5t-89.5 -38.5t-89.5 38t-38.5 90zM256 973q0 51 38.5 89.5t89.5 38.5t89.5 -38.5t38.5 -89.5t-38.5 -89.5t-89.5 -38.5t-89.5 38.5t-38.5 89.5z" />
<glyph unicode="&#xf8;" d="M-46 49l230 231q-142 179 -141 403q0 287 222 488q213 195 503 194q208 0 391 -111l242 243l181 -181l-230 -231q142 -179 141 -402q0 -287 -222 -488q-213 -195 -503 -195q-208 0 -391 111l-242 -242zM503 683q0 -34 12 -72l320 319q-32 9 -67 9q-104 0 -184.5 -76 t-80.5 -180zM701 435q32 -9 67 -8q106 0 185.5 76t79.5 180q0 36 -12 71z" />
<glyph unicode="&#xf9;" d="M43 683v682h460v-682q0 -104 79.5 -180t185.5 -76q104 0 184.5 76t80.5 180v682h460v-682q0 -287 -222 -488q-213 -195 -503 -195t-503 195q-222 201 -222 488zM213 1536l171 171l597 -222v-34z" />
<glyph unicode="&#xfa;" d="M43 683v682h460v-682q0 -104 79.5 -180t185.5 -76q104 0 184.5 76t80.5 180v682h460v-682q0 -287 -222 -488q-213 -195 -503 -195t-503 195q-222 201 -222 488zM555 1451v34l597 222l171 -171z" />
<glyph unicode="&#xfb;" d="M43 683v682h460v-682q0 -104 79.5 -180t185.5 -76q104 0 184.5 76t80.5 180v682h460v-682q0 -287 -222 -488q-213 -195 -503 -195t-503 195q-222 201 -222 488zM271 1451l342 256h310l342 -256h-277l-220 165l-220 -165h-277z" />
<glyph unicode="&#xfc;" d="M43 683v682h460v-682q0 -104 79.5 -180t185.5 -76q104 0 184.5 76t80.5 180v682h460v-682q0 -287 -222 -488q-213 -195 -503 -195t-503 195q-222 201 -222 488zM427 1579q0 51 38 89.5t90 38.5q53 0 90.5 -37.5t37.5 -90.5t-37.5 -90.5t-90.5 -37.5q-51 0 -89.5 38 t-38.5 90zM853 1579q0 51 38.5 89.5t89.5 38.5q53 0 90.5 -37.5t37.5 -90.5t-37.5 -90.5t-90.5 -37.5q-51 0 -89.5 38t-38.5 90z" />
<glyph unicode="&#xfd;" horiz-adv-x="1689" d="M43 1365h580l222 -401l222 401h580l-546 -938v-427h-512v427zM631 1451v34l598 222l170 -171z" />
<glyph unicode="&#xff;" horiz-adv-x="1689" d="M43 1365h580l222 -401l222 401h580l-546 -938v-427h-512v427zM503 1579q0 51 38.5 89.5t89.5 38.5q53 0 90.5 -37.5t37.5 -90.5q0 -51 -38 -89.5t-90 -38.5q-51 0 -89.5 38t-38.5 90zM930 1579q0 51 38.5 89.5t89.5 38.5q53 0 90.5 -37.5t37.5 -90.5q0 -51 -38.5 -89.5 t-89.5 -38.5t-89.5 38t-38.5 90z" />
<glyph unicode="&#x152;" horiz-adv-x="2449" d="M43 683q0 287 222 488q213 195 503 194q140 0 273 -51v51h1365v-426h-853v-77h512v-359h-512v-76h853v-427h-1365v51q-133 -51 -273 -51q-290 0 -503 195q-222 201 -222 488zM503 683q0 -104 79.5 -180t185.5 -76t185.5 76t79.5 180t-80.5 180t-184.5 76t-184.5 -76 t-80.5 -180z" />
<glyph unicode="&#x153;" horiz-adv-x="2449" d="M43 683q0 287 222 488q213 195 503 194q140 0 273 -51v51h1365v-426h-853v-77h512v-359h-512v-76h853v-427h-1365v51q-133 -51 -273 -51q-290 0 -503 195q-222 201 -222 488zM503 683q0 -104 79.5 -180t185.5 -76t185.5 76t79.5 180t-80.5 180t-184.5 76t-184.5 -76 t-80.5 -180z" />
<glyph unicode="&#x178;" horiz-adv-x="1689" d="M43 1365h580l222 -401l222 401h580l-546 -938v-427h-512v427zM503 1579q0 51 38.5 89.5t89.5 38.5q53 0 90.5 -37.5t37.5 -90.5t-37.5 -90.5t-90.5 -37.5q-51 0 -89.5 38t-38.5 90zM930 1579q0 51 38.5 89.5t89.5 38.5q53 0 90.5 -37.5t37.5 -90.5t-37.5 -90.5 t-90.5 -37.5q-51 0 -89.5 38t-38.5 90z" />
<glyph unicode="&#x2dc;" horiz-adv-x="768" d="M43 1451v174q77 67 172 66q60 0 170 -41t170 -41q79 0 170 82v-170q-96 -70 -175 -70q-58 0 -167.5 41t-167.5 41q-80 0 -172 -82z" />
<glyph unicode="&#x2000;" horiz-adv-x="853" />
<glyph unicode="&#x2001;" horiz-adv-x="1707" />
<glyph unicode="&#x2002;" horiz-adv-x="853" />
<glyph unicode="&#x2003;" horiz-adv-x="1707" />
<glyph unicode="&#x2004;" horiz-adv-x="569" />
<glyph unicode="&#x2005;" horiz-adv-x="426" />
<glyph unicode="&#x2006;" horiz-adv-x="284" />
<glyph unicode="&#x2007;" horiz-adv-x="284" />
<glyph unicode="&#x2008;" horiz-adv-x="213" />
<glyph unicode="&#x2009;" horiz-adv-x="341" />
<glyph unicode="&#x200a;" horiz-adv-x="94" />
<glyph unicode="&#x2010;" horiz-adv-x="768" d="M43 555v256h682v-256h-682z" />
<glyph unicode="&#x2011;" horiz-adv-x="768" d="M43 555v256h682v-256h-682z" />
<glyph unicode="&#x2012;" horiz-adv-x="768" d="M43 555v256h682v-256h-682z" />
<glyph unicode="&#x2013;" horiz-adv-x="1110" d="M43 555v256h1024v-256h-1024z" />
<glyph unicode="&#x2014;" horiz-adv-x="2134" d="M43 555v256h2048v-256h-2048z" />
<glyph unicode="&#x2018;" horiz-adv-x="426" d="M43 1024q0 60 25.5 129t74.5 132q63 77 122 80l-52 -170q70 0 120.5 -50.5t50.5 -120.5q0 -68 -51 -119.5t-120 -51.5q-68 0 -119 51.5t-51 119.5z" />
<glyph unicode="&#x2019;" horiz-adv-x="426" d="M43 1195q0 68 51 119t119 51t119.5 -51t51.5 -119q0 -60 -25.5 -129t-75.5 -132q-63 -77 -121 -81l51 171q-70 0 -120 50.5t-50 120.5z" />
<glyph unicode="&#x201a;" horiz-adv-x="426" d="M43 171q0 68 51 119t119 51t119.5 -51t51.5 -119q0 -60 -25.5 -129t-75.5 -132q-63 -77 -121 -81l51 171q-70 0 -120 50.5t-50 120.5z" />
<glyph unicode="&#x201c;" horiz-adv-x="853" d="M43 1024q0 60 25.5 129t74.5 132q63 77 122 80l-52 -170q70 0 120.5 -50.5t50.5 -120.5q0 -68 -51 -119.5t-120 -51.5q-68 0 -119 51.5t-51 119.5zM469 1024q0 60 26 129t75 132q63 77 121 80l-51 -170q70 0 120.5 -50.5t50.5 -120.5q0 -68 -51.5 -119.5t-119.5 -51.5 t-119.5 51.5t-51.5 119.5z" />
<glyph unicode="&#x201d;" horiz-adv-x="853" d="M43 1195q0 68 51 119t119 51t119.5 -51t51.5 -119q0 -60 -25.5 -129t-75.5 -132q-63 -77 -121 -81l51 171q-70 0 -120 50.5t-50 120.5zM469 1195q0 68 51.5 119t119.5 51t119.5 -51t51.5 -119q0 -60 -26 -129t-75 -132q-63 -77 -121 -81l51 171q-70 0 -120.5 50.5 t-50.5 120.5z" />
<glyph unicode="&#x201e;" horiz-adv-x="853" d="M43 171q0 68 51 119t119 51t119.5 -51t51.5 -119q0 -60 -25.5 -129t-75.5 -132q-63 -77 -121 -81l51 171q-70 0 -120 50.5t-50 120.5zM469 171q0 68 51.5 119t119.5 51t119.5 -51t51.5 -119q0 -60 -26 -129t-75 -132q-63 -77 -121 -81l51 171q-70 0 -120.5 50.5 t-50.5 120.5z" />
<glyph unicode="&#x2022;" horiz-adv-x="597" d="M43 683q0 104 76 180t180 76t180 -76t76 -180t-76 -180t-180 -76t-180 76t-76 180z" />
<glyph unicode="&#x2026;" horiz-adv-x="1280" d="M43 171q0 70 50 120t120 50t120.5 -50t50.5 -120t-50.5 -120.5t-120.5 -50.5t-120 50.5t-50 120.5zM469 171q0 70 50.5 120t120.5 50t120.5 -50t50.5 -120t-50.5 -120.5t-120.5 -50.5t-120.5 50.5t-50.5 120.5zM896 171q0 70 50.5 120t120.5 50t120 -50t50 -120 t-50 -120.5t-120 -50.5t-120.5 50.5t-50.5 120.5z" />
<glyph unicode="&#x202f;" horiz-adv-x="341" />
<glyph unicode="&#x205f;" horiz-adv-x="426" />
<glyph unicode="&#x2122;" horiz-adv-x="1237" d="M43 1034v161h735l113 -161l113 161h191v-512h-191v160l-113 -160l-113 160v-160h-191v351h-176v-351h-193v351h-175z" />
<glyph unicode="&#xe000;" horiz-adv-x="1365" d="M0 0v1365h1365v-1365h-1365z" />
</font>
</defs>
</svg>
