<?xml version="1.0" standalone="no"?>
<!DOCTYPE svg PUBLIC "-//W3C//DTD SVG 1.1//EN" "http://www.w3.org/Graphics/SVG/1.1/DTD/svg11.dtd" >
<svg xmlns="http://www.w3.org/2000/svg">
<metadata></metadata>
<defs>
<font id="proggysmallttregular" horiz-adv-x="896" >
<font-face units-per-em="2048" ascent="2048" descent="0" />
<missing-glyph horiz-adv-x="500" />
<glyph />
<glyph />
<glyph horiz-adv-x="682" />
<glyph />
<glyph />
<glyph />
<glyph />
<glyph />
<glyph />
<glyph />
<glyph />
<glyph unicode="&#x9;" />
<glyph unicode="&#xa;" />
<glyph />
<glyph />
<glyph unicode="&#xd;" />
<glyph />
<glyph />
<glyph />
<glyph />
<glyph />
<glyph />
<glyph />
<glyph />
<glyph />
<glyph />
<glyph />
<glyph />
<glyph />
<glyph />
<glyph />
<glyph />
<glyph />
<glyph />
<glyph unicode=" " />
<glyph unicode="!" d="M384 0v128h128v-128h-128zM384 256v128h128v-128h-128zM384 384v128h128v-128h-128zM384 512v128h128v-128h-128zM384 640v128h128v-128h-128zM384 768v128h128v-128h-128z" />
<glyph unicode="&#x22;" d="M256 640v128h128v-128h-128zM256 768v128h128v-128h-128zM256 896v128h128v-128h-128zM512 640v128h128v-128h-128zM512 768v128h128v-128h-128zM512 896v128h128v-128h-128z" />
<glyph unicode="#" d="M128 128v128h128v-128h-128zM128 512v128h128v-128h-128zM256 0v128h128v-128h-128zM256 128v128h128v-128h-128zM256 256v128h128v-128h-128zM256 384v128h128v-128h-128zM256 512v128h128v-128h-128zM256 640v128h128v-128h-128zM384 128v128h128v-128h-128zM384 512 v128h128v-128h-128zM512 0v128h128v-128h-128zM512 128v128h128v-128h-128zM512 256v128h128v-128h-128zM512 384v128h128v-128h-128zM512 512v128h128v-128h-128zM512 640v128h128v-128h-128zM640 128v128h128v-128h-128zM640 512v128h128v-128h-128z" />
<glyph unicode="$" d="M128 128v128h128v-128h-128zM128 512v128h128v-128h-128zM256 128v128h128v-128h-128zM256 384v128h128v-128h-128zM256 640v128h128v-128h-128zM384 0v128h128v-128h-128zM384 128v128h128v-128h-128zM384 256v128h128v-128h-128zM384 384v128h128v-128h-128zM384 512 v128h128v-128h-128zM384 640v128h128v-128h-128zM384 768v128h128v-128h-128zM512 128v128h128v-128h-128zM512 384v128h128v-128h-128zM512 640v128h128v-128h-128zM640 256v128h128v-128h-128zM640 640v128h128v-128h-128z" />
<glyph unicode="%" d="M0 512v128h128v-128h-128zM128 0v128h128v-128h-128zM128 384v128h128v-128h-128zM128 640v128h128v-128h-128zM256 128v128h128v-128h-128zM256 512v128h128v-128h-128zM384 256v128h128v-128h-128zM384 384v128h128v-128h-128zM512 128v128h128v-128h-128zM512 512v128 h128v-128h-128zM640 0v128h128v-128h-128zM640 256v128h128v-128h-128zM640 640v128h128v-128h-128zM768 128v128h128v-128h-128z" />
<glyph unicode="&#x26;" d="M0 128v128h128v-128h-128zM0 256v128h128v-128h-128zM0 512v128h128v-128h-128zM0 640v128h128v-128h-128zM128 0v128h128v-128h-128zM128 384v128h128v-128h-128zM128 768v128h128v-128h-128zM256 0v128h128v-128h-128zM256 384v128h128v-128h-128zM256 768v128h128 v-128h-128zM384 0v128h128v-128h-128zM384 256v128h128v-128h-128zM384 512v128h128v-128h-128zM384 640v128h128v-128h-128zM512 128v128h128v-128h-128zM640 0v128h128v-128h-128zM640 256v128h128v-128h-128z" />
<glyph unicode="'" d="M384 640v128h128v-128h-128zM384 768v128h128v-128h-128zM384 896v128h128v-128h-128z" />
<glyph unicode="(" d="M256 128v128h128v-128h-128zM256 256v128h128v-128h-128zM256 384v128h128v-128h-128zM256 512v128h128v-128h-128zM256 640v128h128v-128h-128zM384 0v128h128v-128h-128zM384 768v128h128v-128h-128zM512 0h128v-128h-128v128zM512 896v128h128v-128h-128z" />
<glyph unicode=")" d="M256 0h128v-128h-128v128zM256 896v128h128v-128h-128zM384 0v128h128v-128h-128zM384 768v128h128v-128h-128zM512 128v128h128v-128h-128zM512 256v128h128v-128h-128zM512 384v128h128v-128h-128zM512 512v128h128v-128h-128zM512 640v128h128v-128h-128z" />
<glyph unicode="*" d="M128 256v128h128v-128h-128zM128 512v128h128v-128h-128zM256 384v128h128v-128h-128zM384 128v128h128v-128h-128zM384 256v128h128v-128h-128zM384 384v128h128v-128h-128zM384 512v128h128v-128h-128zM384 640v128h128v-128h-128zM512 384v128h128v-128h-128zM640 256 v128h128v-128h-128zM640 512v128h128v-128h-128z" />
<glyph unicode="+" d="M128 384v128h128v-128h-128zM256 384v128h128v-128h-128zM384 128v128h128v-128h-128zM384 256v128h128v-128h-128zM384 384v128h128v-128h-128zM384 512v128h128v-128h-128zM384 640v128h128v-128h-128zM512 384v128h128v-128h-128zM640 384v128h128v-128h-128z" />
<glyph unicode="," d="M256 0h128v-128h-128v128zM384 0v128h128v-128h-128z" />
<glyph unicode="-" d="M128 384v128h128v-128h-128zM256 384v128h128v-128h-128zM384 384v128h128v-128h-128zM512 384v128h128v-128h-128zM640 384v128h128v-128h-128z" />
<glyph unicode="." d="M256 0v128h128v-128h-128z" />
<glyph unicode="/" d="M128 0h128v-128h-128v128zM256 0v128h128v-128h-128zM256 128v128h128v-128h-128zM384 256v128h128v-128h-128zM384 384v128h128v-128h-128zM512 512v128h128v-128h-128zM512 640v128h128v-128h-128zM640 768v128h128v-128h-128zM640 896v128h128v-128h-128z" />
<glyph unicode="0" d="M0 128v128h128v-128h-128zM0 256v128h128v-128h-128zM0 384v128h128v-128h-128zM0 512v128h128v-128h-128zM0 640v128h128v-128h-128zM128 0v128h128v-128h-128zM128 768v128h128v-128h-128zM256 0v128h128v-128h-128zM256 384v128h128v-128h-128zM256 768v128h128v-128 h-128zM384 0v128h128v-128h-128zM384 384v128h128v-128h-128zM384 768v128h128v-128h-128zM512 0v128h128v-128h-128zM512 768v128h128v-128h-128zM640 128v128h128v-128h-128zM640 256v128h128v-128h-128zM640 384v128h128v-128h-128zM640 512v128h128v-128h-128zM640 640 v128h128v-128h-128z" />
<glyph unicode="1" d="M256 0v128h128v-128h-128zM256 640v128h128v-128h-128zM384 0v128h128v-128h-128zM384 128v128h128v-128h-128zM384 256v128h128v-128h-128zM384 384v128h128v-128h-128zM384 512v128h128v-128h-128zM384 640v128h128v-128h-128zM384 768v128h128v-128h-128zM512 0v128 h128v-128h-128z" />
<glyph unicode="2" d="M0 0v128h128v-128h-128zM0 128v128h128v-128h-128zM0 640v128h128v-128h-128zM128 0v128h128v-128h-128zM128 256v128h128v-128h-128zM128 768v128h128v-128h-128zM256 0v128h128v-128h-128zM256 256v128h128v-128h-128zM256 768v128h128v-128h-128zM384 0v128h128v-128 h-128zM384 384v128h128v-128h-128zM384 768v128h128v-128h-128zM512 0v128h128v-128h-128zM512 384v128h128v-128h-128zM512 768v128h128v-128h-128zM640 0v128h128v-128h-128zM640 512v128h128v-128h-128zM640 640v128h128v-128h-128z" />
<glyph unicode="3" d="M0 128v128h128v-128h-128zM0 640v128h128v-128h-128zM128 0v128h128v-128h-128zM128 768v128h128v-128h-128zM256 0v128h128v-128h-128zM256 384v128h128v-128h-128zM256 768v128h128v-128h-128zM384 0v128h128v-128h-128zM384 384v128h128v-128h-128zM384 768v128h128 v-128h-128zM512 0v128h128v-128h-128zM512 384v128h128v-128h-128zM512 768v128h128v-128h-128zM640 128v128h128v-128h-128zM640 256v128h128v-128h-128zM640 512v128h128v-128h-128zM640 640v128h128v-128h-128z" />
<glyph unicode="4" d="M0 256v128h128v-128h-128zM128 256v128h128v-128h-128zM128 384v128h128v-128h-128zM256 256v128h128v-128h-128zM256 512v128h128v-128h-128zM384 256v128h128v-128h-128zM384 640v128h128v-128h-128zM512 0v128h128v-128h-128zM512 128v128h128v-128h-128zM512 256v128 h128v-128h-128zM512 384v128h128v-128h-128zM512 512v128h128v-128h-128zM512 640v128h128v-128h-128zM512 768v128h128v-128h-128zM640 256v128h128v-128h-128z" />
<glyph unicode="5" d="M0 128v128h128v-128h-128zM0 384v128h128v-128h-128zM0 512v128h128v-128h-128zM0 640v128h128v-128h-128zM0 768v128h128v-128h-128zM128 0v128h128v-128h-128zM128 384v128h128v-128h-128zM128 768v128h128v-128h-128zM256 0v128h128v-128h-128zM256 384v128h128v-128 h-128zM256 768v128h128v-128h-128zM384 0v128h128v-128h-128zM384 384v128h128v-128h-128zM384 768v128h128v-128h-128zM512 0v128h128v-128h-128zM512 384v128h128v-128h-128zM512 768v128h128v-128h-128zM640 128v128h128v-128h-128zM640 256v128h128v-128h-128zM640 768 v128h128v-128h-128z" />
<glyph unicode="6" d="M0 128v128h128v-128h-128zM0 256v128h128v-128h-128zM0 384v128h128v-128h-128zM0 512v128h128v-128h-128zM128 0v128h128v-128h-128zM128 384v128h128v-128h-128zM128 640v128h128v-128h-128zM256 0v128h128v-128h-128zM256 384v128h128v-128h-128zM256 768v128h128 v-128h-128zM384 0v128h128v-128h-128zM384 384v128h128v-128h-128zM384 768v128h128v-128h-128zM512 0v128h128v-128h-128zM512 384v128h128v-128h-128zM512 768v128h128v-128h-128zM640 128v128h128v-128h-128zM640 256v128h128v-128h-128z" />
<glyph unicode="7" d="M0 768v128h128v-128h-128zM128 0v128h128v-128h-128zM128 128v128h128v-128h-128zM128 768v128h128v-128h-128zM256 256v128h128v-128h-128zM256 768v128h128v-128h-128zM384 384v128h128v-128h-128zM384 768v128h128v-128h-128zM512 512v128h128v-128h-128zM512 768v128 h128v-128h-128zM640 640v128h128v-128h-128zM640 768v128h128v-128h-128z" />
<glyph unicode="8" d="M0 128v128h128v-128h-128zM0 256v128h128v-128h-128zM0 512v128h128v-128h-128zM0 640v128h128v-128h-128zM128 0v128h128v-128h-128zM128 384v128h128v-128h-128zM128 768v128h128v-128h-128zM256 0v128h128v-128h-128zM256 384v128h128v-128h-128zM256 768v128h128 v-128h-128zM384 0v128h128v-128h-128zM384 384v128h128v-128h-128zM384 768v128h128v-128h-128zM512 0v128h128v-128h-128zM512 384v128h128v-128h-128zM512 768v128h128v-128h-128zM640 128v128h128v-128h-128zM640 256v128h128v-128h-128zM640 512v128h128v-128h-128z M640 640v128h128v-128h-128z" />
<glyph unicode="9" d="M0 512v128h128v-128h-128zM0 640v128h128v-128h-128zM128 0v128h128v-128h-128zM128 384v128h128v-128h-128zM128 768v128h128v-128h-128zM256 0v128h128v-128h-128zM256 384v128h128v-128h-128zM256 768v128h128v-128h-128zM384 0v128h128v-128h-128zM384 384v128h128 v-128h-128zM384 768v128h128v-128h-128zM512 128v128h128v-128h-128zM512 384v128h128v-128h-128zM512 768v128h128v-128h-128zM640 256v128h128v-128h-128zM640 384v128h128v-128h-128zM640 512v128h128v-128h-128zM640 640v128h128v-128h-128z" />
<glyph unicode=":" d="M384 128v128h128v-128h-128zM384 512v128h128v-128h-128z" />
<glyph unicode=";" d="M128 0v128h128v-128h-128zM256 128v128h128v-128h-128zM256 512v128h128v-128h-128z" />
<glyph unicode="&#x3c;" d="M0 384v128h128v-128h-128zM128 384v128h128v-128h-128zM256 256v128h128v-128h-128zM256 512v128h128v-128h-128zM384 256v128h128v-128h-128zM384 512v128h128v-128h-128zM512 128v128h128v-128h-128zM512 640v128h128v-128h-128zM640 128v128h128v-128h-128zM640 640 v128h128v-128h-128z" />
<glyph unicode="=" d="M128 256v128h128v-128h-128zM128 512v128h128v-128h-128zM256 256v128h128v-128h-128zM256 512v128h128v-128h-128zM384 256v128h128v-128h-128zM384 512v128h128v-128h-128zM512 256v128h128v-128h-128zM512 512v128h128v-128h-128zM640 256v128h128v-128h-128zM640 512 v128h128v-128h-128z" />
<glyph unicode="&#x3e;" d="M0 128v128h128v-128h-128zM0 640v128h128v-128h-128zM128 128v128h128v-128h-128zM128 640v128h128v-128h-128zM256 256v128h128v-128h-128zM256 512v128h128v-128h-128zM384 256v128h128v-128h-128zM384 512v128h128v-128h-128zM512 384v128h128v-128h-128zM640 384v128 h128v-128h-128z" />
<glyph unicode="?" d="M0 640v128h128v-128h-128zM128 768v128h128v-128h-128zM256 0v128h128v-128h-128zM256 256v128h128v-128h-128zM256 768v128h128v-128h-128zM384 384v128h128v-128h-128zM384 768v128h128v-128h-128zM512 384v128h128v-128h-128zM512 768v128h128v-128h-128zM640 512v128 h128v-128h-128zM640 640v128h128v-128h-128z" />
<glyph unicode="@" d="M0 128v128h128v-128h-128zM0 256v128h128v-128h-128zM0 384v128h128v-128h-128zM0 512v128h128v-128h-128zM0 640v128h128v-128h-128zM128 0v128h128v-128h-128zM128 768v128h128v-128h-128zM256 0v128h128v-128h-128zM256 256v128h128v-128h-128zM256 384v128h128v-128 h-128zM256 512v128h128v-128h-128zM256 768v128h128v-128h-128zM384 0v128h128v-128h-128zM384 256v128h128v-128h-128zM384 384v128h128v-128h-128zM384 512v128h128v-128h-128zM384 768v128h128v-128h-128zM512 0v128h128v-128h-128zM512 256v128h128v-128h-128zM512 768 v128h128v-128h-128zM640 0v128h128v-128h-128zM640 256v128h128v-128h-128zM640 384v128h128v-128h-128zM640 512v128h128v-128h-128zM640 640v128h128v-128h-128z" />
<glyph unicode="A" d="M0 0v128h128v-128h-128zM0 128v128h128v-128h-128zM128 256v128h128v-128h-128zM128 384v128h128v-128h-128zM128 512v128h128v-128h-128zM256 256v128h128v-128h-128zM256 640v128h128v-128h-128zM256 768v128h128v-128h-128zM384 256v128h128v-128h-128zM384 640v128 h128v-128h-128zM384 768v128h128v-128h-128zM512 256v128h128v-128h-128zM512 384v128h128v-128h-128zM512 512v128h128v-128h-128zM640 0v128h128v-128h-128zM640 128v128h128v-128h-128z" />
<glyph unicode="B" d="M0 0v128h128v-128h-128zM0 128v128h128v-128h-128zM0 256v128h128v-128h-128zM0 384v128h128v-128h-128zM0 512v128h128v-128h-128zM0 640v128h128v-128h-128zM0 768v128h128v-128h-128zM128 0v128h128v-128h-128zM128 384v128h128v-128h-128zM128 768v128h128v-128h-128 zM256 0v128h128v-128h-128zM256 384v128h128v-128h-128zM256 768v128h128v-128h-128zM384 0v128h128v-128h-128zM384 384v128h128v-128h-128zM384 768v128h128v-128h-128zM512 0v128h128v-128h-128zM512 384v128h128v-128h-128zM512 768v128h128v-128h-128zM640 128v128h128 v-128h-128zM640 256v128h128v-128h-128zM640 512v128h128v-128h-128zM640 640v128h128v-128h-128z" />
<glyph unicode="C" d="M0 128v128h128v-128h-128zM0 256v128h128v-128h-128zM0 384v128h128v-128h-128zM0 512v128h128v-128h-128zM0 640v128h128v-128h-128zM128 0v128h128v-128h-128zM128 768v128h128v-128h-128zM256 0v128h128v-128h-128zM256 768v128h128v-128h-128zM384 0v128h128v-128 h-128zM384 768v128h128v-128h-128zM512 0v128h128v-128h-128zM512 768v128h128v-128h-128zM640 128v128h128v-128h-128zM640 640v128h128v-128h-128z" />
<glyph unicode="D" d="M0 0v128h128v-128h-128zM0 128v128h128v-128h-128zM0 256v128h128v-128h-128zM0 384v128h128v-128h-128zM0 512v128h128v-128h-128zM0 640v128h128v-128h-128zM0 768v128h128v-128h-128zM128 0v128h128v-128h-128zM128 768v128h128v-128h-128zM256 0v128h128v-128h-128z M256 768v128h128v-128h-128zM384 0v128h128v-128h-128zM384 768v128h128v-128h-128zM512 128v128h128v-128h-128zM512 640v128h128v-128h-128zM640 256v128h128v-128h-128zM640 384v128h128v-128h-128zM640 512v128h128v-128h-128z" />
<glyph unicode="E" d="M0 0v128h128v-128h-128zM0 128v128h128v-128h-128zM0 256v128h128v-128h-128zM0 384v128h128v-128h-128zM0 512v128h128v-128h-128zM0 640v128h128v-128h-128zM0 768v128h128v-128h-128zM128 0v128h128v-128h-128zM128 384v128h128v-128h-128zM128 768v128h128v-128h-128 zM256 0v128h128v-128h-128zM256 384v128h128v-128h-128zM256 768v128h128v-128h-128zM384 0v128h128v-128h-128zM384 384v128h128v-128h-128zM384 768v128h128v-128h-128zM512 0v128h128v-128h-128zM512 384v128h128v-128h-128zM512 768v128h128v-128h-128zM640 0v128h128 v-128h-128zM640 768v128h128v-128h-128z" />
<glyph unicode="F" d="M0 0v128h128v-128h-128zM0 128v128h128v-128h-128zM0 256v128h128v-128h-128zM0 384v128h128v-128h-128zM0 512v128h128v-128h-128zM0 640v128h128v-128h-128zM0 768v128h128v-128h-128zM128 384v128h128v-128h-128zM128 768v128h128v-128h-128zM256 384v128h128v-128 h-128zM256 768v128h128v-128h-128zM384 384v128h128v-128h-128zM384 768v128h128v-128h-128zM512 384v128h128v-128h-128zM512 768v128h128v-128h-128zM640 768v128h128v-128h-128z" />
<glyph unicode="G" d="M0 256v128h128v-128h-128zM0 384v128h128v-128h-128zM0 512v128h128v-128h-128zM128 128v128h128v-128h-128zM128 640v128h128v-128h-128zM256 0v128h128v-128h-128zM256 768v128h128v-128h-128zM384 0v128h128v-128h-128zM384 384v128h128v-128h-128zM384 768v128h128 v-128h-128zM512 0v128h128v-128h-128zM512 384v128h128v-128h-128zM512 768v128h128v-128h-128zM640 128v128h128v-128h-128zM640 256v128h128v-128h-128zM640 384v128h128v-128h-128zM640 640v128h128v-128h-128z" />
<glyph unicode="H" d="M0 0v128h128v-128h-128zM0 128v128h128v-128h-128zM0 256v128h128v-128h-128zM0 384v128h128v-128h-128zM0 512v128h128v-128h-128zM0 640v128h128v-128h-128zM0 768v128h128v-128h-128zM128 384v128h128v-128h-128zM256 384v128h128v-128h-128zM384 384v128h128v-128 h-128zM512 384v128h128v-128h-128zM640 0v128h128v-128h-128zM640 128v128h128v-128h-128zM640 256v128h128v-128h-128zM640 384v128h128v-128h-128zM640 512v128h128v-128h-128zM640 640v128h128v-128h-128zM640 768v128h128v-128h-128z" />
<glyph unicode="I" d="M256 0v128h128v-128h-128zM256 768v128h128v-128h-128zM384 0v128h128v-128h-128zM384 128v128h128v-128h-128zM384 256v128h128v-128h-128zM384 384v128h128v-128h-128zM384 512v128h128v-128h-128zM384 640v128h128v-128h-128zM384 768v128h128v-128h-128zM512 0v128 h128v-128h-128zM512 768v128h128v-128h-128z" />
<glyph unicode="J" d="M128 0v128h128v-128h-128zM256 0v128h128v-128h-128zM384 0v128h128v-128h-128zM384 768v128h128v-128h-128zM512 0v128h128v-128h-128zM512 768v128h128v-128h-128zM640 128v128h128v-128h-128zM640 256v128h128v-128h-128zM640 384v128h128v-128h-128zM640 512v128h128 v-128h-128zM640 640v128h128v-128h-128zM640 768v128h128v-128h-128z" />
<glyph unicode="K" d="M0 0v128h128v-128h-128zM0 128v128h128v-128h-128zM0 256v128h128v-128h-128zM0 384v128h128v-128h-128zM0 512v128h128v-128h-128zM0 640v128h128v-128h-128zM0 768v128h128v-128h-128zM128 384v128h128v-128h-128zM256 384v128h128v-128h-128zM384 256v128h128v-128 h-128zM384 512v128h128v-128h-128zM512 128v128h128v-128h-128zM512 640v128h128v-128h-128zM640 0v128h128v-128h-128zM640 768v128h128v-128h-128z" />
<glyph unicode="L" d="M0 0v128h128v-128h-128zM0 128v128h128v-128h-128zM0 256v128h128v-128h-128zM0 384v128h128v-128h-128zM0 512v128h128v-128h-128zM0 640v128h128v-128h-128zM0 768v128h128v-128h-128zM128 0v128h128v-128h-128zM256 0v128h128v-128h-128zM384 0v128h128v-128h-128z M512 0v128h128v-128h-128zM640 0v128h128v-128h-128z" />
<glyph unicode="M" d="M0 0v128h128v-128h-128zM0 128v128h128v-128h-128zM0 256v128h128v-128h-128zM0 384v128h128v-128h-128zM0 512v128h128v-128h-128zM0 640v128h128v-128h-128zM0 768v128h128v-128h-128zM128 640v128h128v-128h-128zM128 768v128h128v-128h-128zM256 384v128h128v-128 h-128zM256 512v128h128v-128h-128zM384 128v128h128v-128h-128zM384 256v128h128v-128h-128zM512 384v128h128v-128h-128zM512 512v128h128v-128h-128zM640 640v128h128v-128h-128zM640 768v128h128v-128h-128zM768 0v128h128v-128h-128zM768 128v128h128v-128h-128z M768 256v128h128v-128h-128zM768 384v128h128v-128h-128zM768 512v128h128v-128h-128zM768 640v128h128v-128h-128zM768 768v128h128v-128h-128z" />
<glyph unicode="N" d="M0 0v128h128v-128h-128zM0 128v128h128v-128h-128zM0 256v128h128v-128h-128zM0 384v128h128v-128h-128zM0 512v128h128v-128h-128zM0 640v128h128v-128h-128zM0 768v128h128v-128h-128zM128 640v128h128v-128h-128zM128 768v128h128v-128h-128zM256 384v128h128v-128 h-128zM256 512v128h128v-128h-128zM384 128v128h128v-128h-128zM384 256v128h128v-128h-128zM512 0v128h128v-128h-128zM640 0v128h128v-128h-128zM640 128v128h128v-128h-128zM640 256v128h128v-128h-128zM640 384v128h128v-128h-128zM640 512v128h128v-128h-128zM640 640 v128h128v-128h-128zM640 768v128h128v-128h-128z" />
<glyph unicode="O" d="M0 256v128h128v-128h-128zM0 384v128h128v-128h-128zM0 512v128h128v-128h-128zM128 128v128h128v-128h-128zM128 640v128h128v-128h-128zM256 0v128h128v-128h-128zM256 768v128h128v-128h-128zM384 0v128h128v-128h-128zM384 768v128h128v-128h-128zM512 128v128h128 v-128h-128zM512 640v128h128v-128h-128zM640 256v128h128v-128h-128zM640 384v128h128v-128h-128zM640 512v128h128v-128h-128z" />
<glyph unicode="P" d="M0 0v128h128v-128h-128zM0 128v128h128v-128h-128zM0 256v128h128v-128h-128zM0 384v128h128v-128h-128zM0 512v128h128v-128h-128zM0 640v128h128v-128h-128zM0 768v128h128v-128h-128zM128 384v128h128v-128h-128zM128 768v128h128v-128h-128zM256 384v128h128v-128 h-128zM256 768v128h128v-128h-128zM384 384v128h128v-128h-128zM384 768v128h128v-128h-128zM512 384v128h128v-128h-128zM512 768v128h128v-128h-128zM640 512v128h128v-128h-128zM640 640v128h128v-128h-128z" />
<glyph unicode="Q" d="M0 128v128h128v-128h-128zM0 256v128h128v-128h-128zM0 384v128h128v-128h-128zM0 512v128h128v-128h-128zM0 640v128h128v-128h-128zM128 0v128h128v-128h-128zM128 768v128h128v-128h-128zM256 0v128h128v-128h-128zM256 768v128h128v-128h-128zM384 0v128h128v-128 h-128zM384 768v128h128v-128h-128zM512 0v128h128v-128h-128zM512 128v128h128v-128h-128zM512 768v128h128v-128h-128zM640 0v128h128v-128h-128zM640 128v128h128v-128h-128zM640 256v128h128v-128h-128zM640 384v128h128v-128h-128zM640 512v128h128v-128h-128zM640 640 v128h128v-128h-128zM768 0h128v-128h-128v128z" />
<glyph unicode="R" d="M0 0v128h128v-128h-128zM0 128v128h128v-128h-128zM0 256v128h128v-128h-128zM0 384v128h128v-128h-128zM0 512v128h128v-128h-128zM0 640v128h128v-128h-128zM0 768v128h128v-128h-128zM128 384v128h128v-128h-128zM128 768v128h128v-128h-128zM256 384v128h128v-128 h-128zM256 768v128h128v-128h-128zM384 256v128h128v-128h-128zM384 384v128h128v-128h-128zM384 768v128h128v-128h-128zM512 128v128h128v-128h-128zM512 384v128h128v-128h-128zM512 768v128h128v-128h-128zM640 0v128h128v-128h-128zM640 512v128h128v-128h-128z M640 640v128h128v-128h-128z" />
<glyph unicode="S" d="M0 128v128h128v-128h-128zM0 512v128h128v-128h-128zM0 640v128h128v-128h-128zM128 0v128h128v-128h-128zM128 384v128h128v-128h-128zM128 768v128h128v-128h-128zM256 0v128h128v-128h-128zM256 384v128h128v-128h-128zM256 768v128h128v-128h-128zM384 0v128h128 v-128h-128zM384 384v128h128v-128h-128zM384 768v128h128v-128h-128zM512 0v128h128v-128h-128zM512 384v128h128v-128h-128zM512 768v128h128v-128h-128zM640 128v128h128v-128h-128zM640 256v128h128v-128h-128zM640 640v128h128v-128h-128z" />
<glyph unicode="T" d="M0 768v128h128v-128h-128zM128 768v128h128v-128h-128zM256 768v128h128v-128h-128zM384 0v128h128v-128h-128zM384 128v128h128v-128h-128zM384 256v128h128v-128h-128zM384 384v128h128v-128h-128zM384 512v128h128v-128h-128zM384 640v128h128v-128h-128zM384 768v128 h128v-128h-128zM512 768v128h128v-128h-128zM640 768v128h128v-128h-128zM768 768v128h128v-128h-128z" />
<glyph unicode="U" d="M0 128v128h128v-128h-128zM0 256v128h128v-128h-128zM0 384v128h128v-128h-128zM0 512v128h128v-128h-128zM0 640v128h128v-128h-128zM0 768v128h128v-128h-128zM128 0v128h128v-128h-128zM256 0v128h128v-128h-128zM384 0v128h128v-128h-128zM512 0v128h128v-128h-128z M640 128v128h128v-128h-128zM640 256v128h128v-128h-128zM640 384v128h128v-128h-128zM640 512v128h128v-128h-128zM640 640v128h128v-128h-128zM640 768v128h128v-128h-128z" />
<glyph unicode="V" d="M0 768v128h128v-128h-128zM128 512v128h128v-128h-128zM128 640v128h128v-128h-128zM256 256v128h128v-128h-128zM256 384v128h128v-128h-128zM384 0v128h128v-128h-128zM384 128v128h128v-128h-128zM512 256v128h128v-128h-128zM512 384v128h128v-128h-128zM640 512v128 h128v-128h-128zM640 640v128h128v-128h-128zM768 768v128h128v-128h-128z" />
<glyph unicode="W" d="M0 256v128h128v-128h-128zM0 384v128h128v-128h-128zM0 512v128h128v-128h-128zM0 640v128h128v-128h-128zM0 768v128h128v-128h-128zM128 0v128h128v-128h-128zM128 128v128h128v-128h-128zM256 256v128h128v-128h-128zM256 384v128h128v-128h-128zM384 512v128h128 v-128h-128zM384 640v128h128v-128h-128zM512 256v128h128v-128h-128zM512 384v128h128v-128h-128zM640 0v128h128v-128h-128zM640 128v128h128v-128h-128zM768 256v128h128v-128h-128zM768 384v128h128v-128h-128zM768 512v128h128v-128h-128zM768 640v128h128v-128h-128z M768 768v128h128v-128h-128z" />
<glyph unicode="X" d="M0 0v128h128v-128h-128zM0 128v128h128v-128h-128zM0 640v128h128v-128h-128zM0 768v128h128v-128h-128zM128 256v128h128v-128h-128zM128 512v128h128v-128h-128zM256 384v128h128v-128h-128zM384 384v128h128v-128h-128zM512 256v128h128v-128h-128zM512 512v128h128 v-128h-128zM640 0v128h128v-128h-128zM640 128v128h128v-128h-128zM640 640v128h128v-128h-128zM640 768v128h128v-128h-128z" />
<glyph unicode="Y" d="M0 640v128h128v-128h-128zM0 768v128h128v-128h-128zM128 512v128h128v-128h-128zM256 384v128h128v-128h-128zM384 0v128h128v-128h-128zM384 128v128h128v-128h-128zM384 256v128h128v-128h-128zM512 384v128h128v-128h-128zM640 512v128h128v-128h-128zM768 640v128 h128v-128h-128zM768 768v128h128v-128h-128z" />
<glyph unicode="Z" d="M128 0v128h128v-128h-128zM128 128v128h128v-128h-128zM128 768v128h128v-128h-128zM256 0v128h128v-128h-128zM256 256v128h128v-128h-128zM256 768v128h128v-128h-128zM384 0v128h128v-128h-128zM384 384v128h128v-128h-128zM384 768v128h128v-128h-128zM512 0v128h128 v-128h-128zM512 512v128h128v-128h-128zM512 768v128h128v-128h-128zM640 0v128h128v-128h-128zM640 640v128h128v-128h-128zM640 768v128h128v-128h-128z" />
<glyph unicode="[" d="M256 0h128v-128h-128v128zM256 0v128h128v-128h-128zM256 128v128h128v-128h-128zM256 256v128h128v-128h-128zM256 384v128h128v-128h-128zM256 512v128h128v-128h-128zM256 640v128h128v-128h-128zM256 768v128h128v-128h-128zM256 896v128h128v-128h-128zM384 0h128 v-128h-128v128zM384 896v128h128v-128h-128zM512 0h128v-128h-128v128zM512 896v128h128v-128h-128z" />
<glyph unicode="\" d="M128 768v128h128v-128h-128zM128 896v128h128v-128h-128zM256 512v128h128v-128h-128zM256 640v128h128v-128h-128zM384 256v128h128v-128h-128zM384 384v128h128v-128h-128zM512 0v128h128v-128h-128zM512 128v128h128v-128h-128zM640 0h128v-128h-128v128z" />
<glyph unicode="]" d="M256 0h128v-128h-128v128zM256 896v128h128v-128h-128zM384 0h128v-128h-128v128zM384 896v128h128v-128h-128zM512 0h128v-128h-128v128zM512 0v128h128v-128h-128zM512 128v128h128v-128h-128zM512 256v128h128v-128h-128zM512 384v128h128v-128h-128zM512 512v128h128 v-128h-128zM512 640v128h128v-128h-128zM512 768v128h128v-128h-128zM512 896v128h128v-128h-128z" />
<glyph unicode="^" d="M128 512v128h128v-128h-128zM256 640v128h128v-128h-128zM384 768v128h128v-128h-128zM512 640v128h128v-128h-128zM640 512v128h128v-128h-128z" />
<glyph unicode="_" d="M0 0h128v-128h-128v128zM128 0h128v-128h-128v128zM256 0h128v-128h-128v128zM384 0h128v-128h-128v128zM512 0h128v-128h-128v128zM640 0h128v-128h-128v128zM768 0h128v-128h-128v128z" />
<glyph unicode="`" d="M256 768v128h128v-128h-128zM384 640v128h128v-128h-128z" />
<glyph unicode="a" d="M128 128v128h128v-128h-128zM256 0v128h128v-128h-128zM256 256v128h128v-128h-128zM256 512v128h128v-128h-128zM384 0v128h128v-128h-128zM384 256v128h128v-128h-128zM384 512v128h128v-128h-128zM512 0v128h128v-128h-128zM512 256v128h128v-128h-128zM512 512v128 h128v-128h-128zM640 0v128h128v-128h-128zM640 128v128h128v-128h-128zM640 256v128h128v-128h-128zM640 384v128h128v-128h-128z" />
<glyph unicode="b" d="M128 0v128h128v-128h-128zM128 128v128h128v-128h-128zM128 256v128h128v-128h-128zM128 384v128h128v-128h-128zM128 512v128h128v-128h-128zM128 640v128h128v-128h-128zM128 768v128h128v-128h-128zM128 896v128h128v-128h-128zM256 0v128h128v-128h-128zM256 512v128 h128v-128h-128zM384 0v128h128v-128h-128zM384 512v128h128v-128h-128zM512 0v128h128v-128h-128zM512 512v128h128v-128h-128zM640 128v128h128v-128h-128zM640 256v128h128v-128h-128zM640 384v128h128v-128h-128z" />
<glyph unicode="c" d="M128 128v128h128v-128h-128zM128 256v128h128v-128h-128zM128 384v128h128v-128h-128zM256 0v128h128v-128h-128zM256 512v128h128v-128h-128zM384 0v128h128v-128h-128zM384 512v128h128v-128h-128zM512 0v128h128v-128h-128zM512 512v128h128v-128h-128zM640 0v128h128 v-128h-128zM640 512v128h128v-128h-128z" />
<glyph unicode="d" d="M128 128v128h128v-128h-128zM128 256v128h128v-128h-128zM128 384v128h128v-128h-128zM256 0v128h128v-128h-128zM256 512v128h128v-128h-128zM384 0v128h128v-128h-128zM384 512v128h128v-128h-128zM512 0v128h128v-128h-128zM512 512v128h128v-128h-128zM640 0v128h128 v-128h-128zM640 128v128h128v-128h-128zM640 256v128h128v-128h-128zM640 384v128h128v-128h-128zM640 512v128h128v-128h-128zM640 640v128h128v-128h-128zM640 768v128h128v-128h-128zM640 896v128h128v-128h-128z" />
<glyph unicode="e" d="M128 128v128h128v-128h-128zM128 256v128h128v-128h-128zM128 384v128h128v-128h-128zM256 0v128h128v-128h-128zM256 256v128h128v-128h-128zM256 512v128h128v-128h-128zM384 0v128h128v-128h-128zM384 256v128h128v-128h-128zM384 512v128h128v-128h-128zM512 0v128 h128v-128h-128zM512 256v128h128v-128h-128zM512 512v128h128v-128h-128zM640 0v128h128v-128h-128zM640 256v128h128v-128h-128zM640 384v128h128v-128h-128z" />
<glyph unicode="f" d="M128 384v128h128v-128h-128zM256 0v128h128v-128h-128zM256 128v128h128v-128h-128zM256 256v128h128v-128h-128zM256 384v128h128v-128h-128zM256 512v128h128v-128h-128zM256 640v128h128v-128h-128zM384 384v128h128v-128h-128zM384 768v128h128v-128h-128zM512 384 v128h128v-128h-128zM512 768v128h128v-128h-128zM640 768v128h128v-128h-128z" />
<glyph unicode="g" d="M128 128v128h128v-128h-128zM128 256v128h128v-128h-128zM128 384v128h128v-128h-128zM256 0v128h128v-128h-128zM256 -128h128v-128h-128v128zM256 512v128h128v-128h-128zM384 0v128h128v-128h-128zM384 -128h128v-128h-128v128zM384 512v128h128v-128h-128zM512 0v128 h128v-128h-128zM512 -128h128v-128h-128v128zM512 512v128h128v-128h-128zM640 0v128h128v-128h-128zM640 0h128v-128h-128v128zM640 128v128h128v-128h-128zM640 256v128h128v-128h-128zM640 384v128h128v-128h-128z" />
<glyph unicode="h" d="M128 0v128h128v-128h-128zM128 128v128h128v-128h-128zM128 256v128h128v-128h-128zM128 384v128h128v-128h-128zM128 512v128h128v-128h-128zM128 640v128h128v-128h-128zM128 768v128h128v-128h-128zM128 896v128h128v-128h-128zM256 512v128h128v-128h-128zM384 512 v128h128v-128h-128zM512 512v128h128v-128h-128zM640 0v128h128v-128h-128zM640 128v128h128v-128h-128zM640 256v128h128v-128h-128zM640 384v128h128v-128h-128z" />
<glyph unicode="i" d="M256 512v128h128v-128h-128zM384 0v128h128v-128h-128zM384 128v128h128v-128h-128zM384 256v128h128v-128h-128zM384 384v128h128v-128h-128zM384 512v128h128v-128h-128zM384 768v128h128v-128h-128z" />
<glyph unicode="j" d="M128 -128h128v-128h-128v128zM256 -128h128v-128h-128v128zM384 -128h128v-128h-128v128zM384 512v128h128v-128h-128zM512 0v128h128v-128h-128zM512 0h128v-128h-128v128zM512 128v128h128v-128h-128zM512 256v128h128v-128h-128zM512 384v128h128v-128h-128zM512 512 v128h128v-128h-128zM512 768v128h128v-128h-128z" />
<glyph unicode="k" d="M128 0v128h128v-128h-128zM128 128v128h128v-128h-128zM128 256v128h128v-128h-128zM128 384v128h128v-128h-128zM128 512v128h128v-128h-128zM128 640v128h128v-128h-128zM128 768v128h128v-128h-128zM128 896v128h128v-128h-128zM256 256v128h128v-128h-128zM384 128 v128h128v-128h-128zM384 384v128h128v-128h-128zM512 0v128h128v-128h-128zM512 512v128h128v-128h-128z" />
<glyph unicode="l" d="M256 896v128h128v-128h-128zM384 0v128h128v-128h-128zM384 128v128h128v-128h-128zM384 256v128h128v-128h-128zM384 384v128h128v-128h-128zM384 512v128h128v-128h-128zM384 640v128h128v-128h-128zM384 768v128h128v-128h-128zM384 896v128h128v-128h-128z" />
<glyph unicode="m" d="M0 0v128h128v-128h-128zM0 128v128h128v-128h-128zM0 256v128h128v-128h-128zM0 384v128h128v-128h-128zM0 512v128h128v-128h-128zM128 512v128h128v-128h-128zM256 512v128h128v-128h-128zM384 0v128h128v-128h-128zM384 128v128h128v-128h-128zM384 256v128h128v-128 h-128zM384 384v128h128v-128h-128zM512 512v128h128v-128h-128zM640 512v128h128v-128h-128zM768 0v128h128v-128h-128zM768 128v128h128v-128h-128zM768 256v128h128v-128h-128zM768 384v128h128v-128h-128z" />
<glyph unicode="n" d="M128 0v128h128v-128h-128zM128 128v128h128v-128h-128zM128 256v128h128v-128h-128zM128 384v128h128v-128h-128zM128 512v128h128v-128h-128zM256 512v128h128v-128h-128zM384 512v128h128v-128h-128zM512 512v128h128v-128h-128zM640 0v128h128v-128h-128zM640 128v128 h128v-128h-128zM640 256v128h128v-128h-128zM640 384v128h128v-128h-128z" />
<glyph unicode="o" d="M128 128v128h128v-128h-128zM128 256v128h128v-128h-128zM128 384v128h128v-128h-128zM256 0v128h128v-128h-128zM256 512v128h128v-128h-128zM384 0v128h128v-128h-128zM384 512v128h128v-128h-128zM512 0v128h128v-128h-128zM512 512v128h128v-128h-128zM640 128v128 h128v-128h-128zM640 256v128h128v-128h-128zM640 384v128h128v-128h-128z" />
<glyph unicode="p" d="M128 0v128h128v-128h-128zM128 0h128v-128h-128v128zM128 -128h128v-128h-128v128zM128 128v128h128v-128h-128zM128 256v128h128v-128h-128zM128 384v128h128v-128h-128zM128 512v128h128v-128h-128zM256 0v128h128v-128h-128zM256 512v128h128v-128h-128zM384 0v128 h128v-128h-128zM384 512v128h128v-128h-128zM512 0v128h128v-128h-128zM512 512v128h128v-128h-128zM640 128v128h128v-128h-128zM640 256v128h128v-128h-128zM640 384v128h128v-128h-128z" />
<glyph unicode="q" d="M128 128v128h128v-128h-128zM128 256v128h128v-128h-128zM128 384v128h128v-128h-128zM256 0v128h128v-128h-128zM256 512v128h128v-128h-128zM384 0v128h128v-128h-128zM384 512v128h128v-128h-128zM512 0v128h128v-128h-128zM512 512v128h128v-128h-128zM640 0v128h128 v-128h-128zM640 0h128v-128h-128v128zM640 -128h128v-128h-128v128zM640 128v128h128v-128h-128zM640 256v128h128v-128h-128zM640 384v128h128v-128h-128zM640 512v128h128v-128h-128z" />
<glyph unicode="r" d="M128 0v128h128v-128h-128zM128 128v128h128v-128h-128zM128 256v128h128v-128h-128zM128 384v128h128v-128h-128zM128 512v128h128v-128h-128zM256 384v128h128v-128h-128zM384 512v128h128v-128h-128zM512 512v128h128v-128h-128zM640 384v128h128v-128h-128z" />
<glyph unicode="s" d="M128 0v128h128v-128h-128zM128 384v128h128v-128h-128zM256 0v128h128v-128h-128zM256 256v128h128v-128h-128zM256 512v128h128v-128h-128zM384 0v128h128v-128h-128zM384 256v128h128v-128h-128zM384 512v128h128v-128h-128zM512 0v128h128v-128h-128zM512 256v128h128 v-128h-128zM512 512v128h128v-128h-128zM640 128v128h128v-128h-128zM640 512v128h128v-128h-128z" />
<glyph unicode="t" d="M128 128v128h128v-128h-128zM128 256v128h128v-128h-128zM128 384v128h128v-128h-128zM128 512v128h128v-128h-128zM128 640v128h128v-128h-128zM128 768v128h128v-128h-128zM256 0v128h128v-128h-128zM256 512v128h128v-128h-128zM384 0v128h128v-128h-128zM384 512v128 h128v-128h-128zM512 0v128h128v-128h-128zM512 512v128h128v-128h-128z" />
<glyph unicode="u" d="M128 128v128h128v-128h-128zM128 256v128h128v-128h-128zM128 384v128h128v-128h-128zM128 512v128h128v-128h-128zM256 0v128h128v-128h-128zM384 0v128h128v-128h-128zM512 0v128h128v-128h-128zM640 0v128h128v-128h-128zM640 128v128h128v-128h-128zM640 256v128h128 v-128h-128zM640 384v128h128v-128h-128zM640 512v128h128v-128h-128z" />
<glyph unicode="v" d="M128 512v128h128v-128h-128zM256 256v128h128v-128h-128zM256 384v128h128v-128h-128zM384 0v128h128v-128h-128zM384 128v128h128v-128h-128zM512 256v128h128v-128h-128zM512 384v128h128v-128h-128zM640 512v128h128v-128h-128z" />
<glyph unicode="w" d="M128 256v128h128v-128h-128zM128 384v128h128v-128h-128zM128 512v128h128v-128h-128zM256 0v128h128v-128h-128zM256 128v128h128v-128h-128zM384 256v128h128v-128h-128zM384 384v128h128v-128h-128zM512 0v128h128v-128h-128zM512 128v128h128v-128h-128zM640 256v128 h128v-128h-128zM640 384v128h128v-128h-128zM640 512v128h128v-128h-128z" />
<glyph unicode="x" d="M128 0v128h128v-128h-128zM128 512v128h128v-128h-128zM256 128v128h128v-128h-128zM256 384v128h128v-128h-128zM384 256v128h128v-128h-128zM512 128v128h128v-128h-128zM512 384v128h128v-128h-128zM640 0v128h128v-128h-128zM640 512v128h128v-128h-128z" />
<glyph unicode="y" d="M128 128v128h128v-128h-128zM128 256v128h128v-128h-128zM128 384v128h128v-128h-128zM128 512v128h128v-128h-128zM256 0v128h128v-128h-128zM256 -128h128v-128h-128v128zM384 0v128h128v-128h-128zM384 -128h128v-128h-128v128zM512 0v128h128v-128h-128zM512 -128 h128v-128h-128v128zM640 0v128h128v-128h-128zM640 0h128v-128h-128v128zM640 128v128h128v-128h-128zM640 256v128h128v-128h-128zM640 384v128h128v-128h-128zM640 512v128h128v-128h-128z" />
<glyph unicode="z" d="M128 0v128h128v-128h-128zM128 512v128h128v-128h-128zM256 0v128h128v-128h-128zM256 128v128h128v-128h-128zM256 512v128h128v-128h-128zM384 0v128h128v-128h-128zM384 256v128h128v-128h-128zM384 512v128h128v-128h-128zM512 0v128h128v-128h-128zM512 384v128h128 v-128h-128zM512 512v128h128v-128h-128zM640 0v128h128v-128h-128zM640 512v128h128v-128h-128z" />
<glyph unicode="{" d="M256 384v128h128v-128h-128zM384 0v128h128v-128h-128zM384 128v128h128v-128h-128zM384 256v128h128v-128h-128zM384 512v128h128v-128h-128zM384 640v128h128v-128h-128zM384 768v128h128v-128h-128zM512 0h128v-128h-128v128zM512 896v128h128v-128h-128z" />
<glyph unicode="|" d="M384 0h128v-128h-128v128zM384 0v128h128v-128h-128zM384 128v128h128v-128h-128zM384 256v128h128v-128h-128zM384 384v128h128v-128h-128zM384 512v128h128v-128h-128zM384 640v128h128v-128h-128zM384 768v128h128v-128h-128zM384 896v128h128v-128h-128z" />
<glyph unicode="}" d="M256 0h128v-128h-128v128zM256 896v128h128v-128h-128zM384 0v128h128v-128h-128zM384 128v128h128v-128h-128zM384 256v128h128v-128h-128zM384 512v128h128v-128h-128zM384 640v128h128v-128h-128zM384 768v128h128v-128h-128zM512 384v128h128v-128h-128z" />
<glyph unicode="~" d="M0 256v128h128v-128h-128zM128 384v128h128v-128h-128zM256 384v128h128v-128h-128zM384 256v128h128v-128h-128zM512 256v128h128v-128h-128zM640 384v128h128v-128h-128z" />
<glyph d="M128 0v128h128v-128h-128zM128 128v128h128v-128h-128zM128 256v128h128v-128h-128zM128 384v128h128v-128h-128zM128 512v128h128v-128h-128zM256 512v128h128v-128h-128zM384 512v128h128v-128h-128zM512 0v128h128v-128h-128zM512 128v128h128v-128h-128zM512 256v128 h128v-128h-128zM512 384v128h128v-128h-128zM512 512v128h128v-128h-128z" />
<glyph d="M128 0v128h128v-128h-128zM128 128v128h128v-128h-128zM128 256v128h128v-128h-128zM128 384v128h128v-128h-128zM128 512v128h128v-128h-128zM256 512v128h128v-128h-128zM384 512v128h128v-128h-128zM512 0v128h128v-128h-128zM512 128v128h128v-128h-128zM512 256v128 h128v-128h-128zM512 384v128h128v-128h-128zM512 512v128h128v-128h-128z" />
<glyph d="M256 0h128v-128h-128v128zM384 0v128h128v-128h-128z" />
<glyph d="M256 384v128h128v-128h-128zM384 0h128v-128h-128v128zM384 0v128h128v-128h-128zM384 -128h128v-128h-128v128zM384 128v128h128v-128h-128zM384 256v128h128v-128h-128zM384 384v128h128v-128h-128zM384 512v128h128v-128h-128zM384 640v128h128v-128h-128zM384 768 v128h128v-128h-128zM512 384v128h128v-128h-128zM512 768v128h128v-128h-128zM640 384v128h128v-128h-128zM640 768v128h128v-128h-128z" />
<glyph d="M128 0h128v-128h-128v128zM128 -128h128v-128h-128v128zM512 0h128v-128h-128v128zM512 -128h128v-128h-128v128z" />
<glyph unicode="&#x85;" />
<glyph d="M128 256v128h128v-128h-128zM256 256v128h128v-128h-128zM384 0h128v-128h-128v128zM384 0v128h128v-128h-128zM384 128v128h128v-128h-128zM384 -128h128v-128h-128v128zM384 256v128h128v-128h-128zM384 384v128h128v-128h-128zM384 512v128h128v-128h-128zM512 256 v128h128v-128h-128zM640 256v128h128v-128h-128z" />
<glyph d="M128 0v128h128v-128h-128zM128 256v128h128v-128h-128zM256 0v128h128v-128h-128zM256 256v128h128v-128h-128zM384 0h128v-128h-128v128zM384 0v128h128v-128h-128zM384 -128h128v-128h-128v128zM384 128v128h128v-128h-128zM384 256v128h128v-128h-128zM384 384v128 h128v-128h-128zM384 512v128h128v-128h-128zM512 0v128h128v-128h-128zM512 256v128h128v-128h-128zM640 0v128h128v-128h-128zM640 256v128h128v-128h-128z" />
<glyph d="M256 768v128h128v-128h-128zM384 768v128h128v-128h-128z" />
<glyph d="M128 128v128h128v-128h-128zM128 256v128h128v-128h-128zM128 384v128h128v-128h-128zM128 512v128h128v-128h-128zM256 512v128h128v-128h-128zM384 512v128h128v-128h-128zM512 512v128h128v-128h-128zM640 128v128h128v-128h-128zM640 256v128h128v-128h-128zM640 384 v128h128v-128h-128zM640 512v128h128v-128h-128z" />
<glyph d="M128 384v128h128v-128h-128zM128 768v128h128v-128h-128zM256 256v128h128v-128h-128zM256 512v128h128v-128h-128zM256 640v128h128v-128h-128zM384 256v128h128v-128h-128zM384 512v128h128v-128h-128zM384 640v128h128v-128h-128zM512 256v128h128v-128h-128zM512 512 v128h128v-128h-128zM512 768v128h128v-128h-128zM640 0v128h128v-128h-128zM640 128v128h128v-128h-128zM640 512v128h128v-128h-128z" />
<glyph d="M256 128v128h128v-128h-128zM384 0v128h128v-128h-128zM384 256v128h128v-128h-128zM512 384v128h128v-128h-128z" />
<glyph d="M0 0v128h128v-128h-128zM0 128v128h128v-128h-128zM0 256v128h128v-128h-128zM0 384v128h128v-128h-128zM128 512v128h128v-128h-128zM256 512v128h128v-128h-128zM384 0v128h128v-128h-128zM384 128v128h128v-128h-128zM384 256v128h128v-128h-128zM384 384v128h128 v-128h-128zM384 512v128h128v-128h-128zM512 512v128h128v-128h-128zM640 512v128h128v-128h-128zM768 512v128h128v-128h-128z" />
<glyph d="M128 0v128h128v-128h-128zM128 128v128h128v-128h-128zM128 256v128h128v-128h-128zM128 384v128h128v-128h-128zM256 384v128h128v-128h-128zM384 384v128h128v-128h-128zM512 384v128h128v-128h-128zM640 0v128h128v-128h-128zM640 128v128h128v-128h-128zM640 256v128 h128v-128h-128zM640 384v128h128v-128h-128z" />
<glyph d="M0 512v128h128v-128h-128zM128 0v128h128v-128h-128zM128 512v128h128v-128h-128zM128 768v128h128v-128h-128zM256 128v128h128v-128h-128zM256 512v128h128v-128h-128zM256 640v128h128v-128h-128zM384 256v128h128v-128h-128zM384 512v128h128v-128h-128zM384 640v128 h128v-128h-128zM512 512v128h128v-128h-128zM512 768v128h128v-128h-128zM640 384v128h128v-128h-128zM640 512v128h128v-128h-128z" />
<glyph d="M128 0v128h128v-128h-128zM128 128v128h128v-128h-128zM128 256v128h128v-128h-128zM128 384v128h128v-128h-128zM128 512v128h128v-128h-128zM256 512v128h128v-128h-128zM384 512v128h128v-128h-128zM512 0v128h128v-128h-128zM512 128v128h128v-128h-128zM512 256v128 h128v-128h-128zM512 384v128h128v-128h-128zM512 512v128h128v-128h-128z" />
<glyph d="M128 0v128h128v-128h-128zM128 128v128h128v-128h-128zM128 256v128h128v-128h-128zM128 384v128h128v-128h-128zM128 512v128h128v-128h-128zM256 512v128h128v-128h-128zM384 512v128h128v-128h-128zM512 0v128h128v-128h-128zM512 128v128h128v-128h-128zM512 256v128 h128v-128h-128zM512 384v128h128v-128h-128zM512 512v128h128v-128h-128z" />
<glyph d="M256 384v128h128v-128h-128zM384 512v128h128v-128h-128zM384 640v128h128v-128h-128z" />
<glyph d="M256 384v128h128v-128h-128zM384 512v128h128v-128h-128zM384 640v128h128v-128h-128z" />
<glyph d="M128 512v128h128v-128h-128zM128 640v128h128v-128h-128zM512 512v128h128v-128h-128zM512 640v128h128v-128h-128z" />
<glyph d="M128 512v128h128v-128h-128zM128 640v128h128v-128h-128zM512 512v128h128v-128h-128zM512 640v128h128v-128h-128z" />
<glyph d="M256 256v128h128v-128h-128zM256 384v128h128v-128h-128zM384 256v128h128v-128h-128zM384 384v128h128v-128h-128zM512 256v128h128v-128h-128zM512 384v128h128v-128h-128z" />
<glyph />
<glyph />
<glyph d="M384 768v128h128v-128h-128zM640 768v128h128v-128h-128z" />
<glyph d="M0 512v128h128v-128h-128zM128 384v128h128v-128h-128zM128 512v128h128v-128h-128zM256 512v128h128v-128h-128zM384 384v128h128v-128h-128zM384 512v128h128v-128h-128zM512 384v128h128v-128h-128zM640 384v128h128v-128h-128zM640 512v128h128v-128h-128z" />
<glyph d="M128 256v128h128v-128h-128zM128 384v128h128v-128h-128zM128 768v128h128v-128h-128zM256 256v128h128v-128h-128zM256 384v128h128v-128h-128zM256 640v128h128v-128h-128zM384 128v128h128v-128h-128zM384 384v128h128v-128h-128zM384 640v128h128v-128h-128zM512 0 v128h128v-128h-128zM512 128v128h128v-128h-128zM512 384v128h128v-128h-128zM512 768v128h128v-128h-128z" />
<glyph d="M256 384v128h128v-128h-128zM384 0v128h128v-128h-128zM384 256v128h128v-128h-128zM512 128v128h128v-128h-128z" />
<glyph d="M0 0v128h128v-128h-128zM0 128v128h128v-128h-128zM0 256v128h128v-128h-128zM128 384v128h128v-128h-128zM256 384v128h128v-128h-128zM384 0v128h128v-128h-128zM384 128v128h128v-128h-128zM384 256v128h128v-128h-128zM384 384v128h128v-128h-128zM512 384v128h128 v-128h-128zM640 256v128h128v-128h-128z" />
<glyph d="M128 0v128h128v-128h-128zM128 128v128h128v-128h-128zM128 256v128h128v-128h-128zM128 384v128h128v-128h-128zM128 512v128h128v-128h-128zM256 512v128h128v-128h-128zM384 512v128h128v-128h-128zM512 0v128h128v-128h-128zM512 128v128h128v-128h-128zM512 256v128 h128v-128h-128zM512 384v128h128v-128h-128zM512 512v128h128v-128h-128z" />
<glyph d="M128 384v128h128v-128h-128zM128 768v128h128v-128h-128zM256 0v128h128v-128h-128zM256 384v128h128v-128h-128zM256 640v128h128v-128h-128zM384 128v128h128v-128h-128zM384 384v128h128v-128h-128zM384 640v128h128v-128h-128zM512 256v128h128v-128h-128zM512 384 v128h128v-128h-128zM512 768v128h128v-128h-128zM640 384v128h128v-128h-128z" />
<glyph d="M0 512v128h128v-128h-128zM128 384v128h128v-128h-128zM128 768v128h128v-128h-128zM384 0v128h128v-128h-128zM384 128v128h128v-128h-128zM384 256v128h128v-128h-128zM512 768v128h128v-128h-128zM640 384v128h128v-128h-128zM768 512v128h128v-128h-128z" />
<glyph unicode="&#xa0;" />
<glyph unicode="&#xa1;" d="M384 0v128h128v-128h-128zM384 0h128v-128h-128v128zM384 128v128h128v-128h-128zM384 384v128h128v-128h-128z" />
<glyph unicode="&#xa2;" d="M128 128v128h128v-128h-128zM128 256v128h128v-128h-128zM256 0v128h128v-128h-128zM256 384v128h128v-128h-128zM384 0v128h128v-128h-128zM384 128v128h128v-128h-128zM384 256v128h128v-128h-128zM384 384v128h128v-128h-128zM384 512v128h128v-128h-128zM512 0v128 h128v-128h-128zM512 384v128h128v-128h-128z" />
<glyph unicode="&#xa3;" d="M256 0v128h128v-128h-128zM256 128v128h128v-128h-128zM256 256v128h128v-128h-128zM256 384v128h128v-128h-128zM384 512v128h128v-128h-128zM512 512v128h128v-128h-128z" />
<glyph unicode="&#xa4;" d="M128 0v128h128v-128h-128zM128 128v128h128v-128h-128zM128 256v128h128v-128h-128zM128 384v128h128v-128h-128zM128 512v128h128v-128h-128zM256 512v128h128v-128h-128zM384 512v128h128v-128h-128zM512 0v128h128v-128h-128zM512 128v128h128v-128h-128zM512 256v128 h128v-128h-128zM512 384v128h128v-128h-128zM512 512v128h128v-128h-128z" />
<glyph unicode="&#xa5;" d="M0 512v128h128v-128h-128zM128 0v128h128v-128h-128zM128 384v128h128v-128h-128zM256 0v128h128v-128h-128zM256 256v128h128v-128h-128zM384 0v128h128v-128h-128zM384 128v128h128v-128h-128zM512 0v128h128v-128h-128zM512 256v128h128v-128h-128zM640 0v128h128 v-128h-128zM640 384v128h128v-128h-128zM768 512v128h128v-128h-128z" />
<glyph unicode="&#xa6;" d="M384 0h128v-128h-128v128zM384 -128h128v-128h-128v128zM384 384v128h128v-128h-128zM384 512v128h128v-128h-128zM384 640v128h128v-128h-128z" />
<glyph unicode="&#xa7;" d="M128 0v128h128v-128h-128zM128 128v128h128v-128h-128zM128 256v128h128v-128h-128zM128 384v128h128v-128h-128zM128 512v128h128v-128h-128zM256 512v128h128v-128h-128zM384 512v128h128v-128h-128zM512 0v128h128v-128h-128zM512 128v128h128v-128h-128zM512 256v128 h128v-128h-128zM512 384v128h128v-128h-128zM512 512v128h128v-128h-128z" />
<glyph unicode="&#xa8;" />
<glyph unicode="&#xa9;" d="M0 128v128h128v-128h-128zM0 256v128h128v-128h-128zM0 384v128h128v-128h-128zM0 512v128h128v-128h-128zM0 640v128h128v-128h-128zM0 768v128h128v-128h-128zM128 0v128h128v-128h-128zM128 896v128h128v-128h-128zM256 0v128h128v-128h-128zM256 384v128h128v-128 h-128zM256 512v128h128v-128h-128zM256 896v128h128v-128h-128zM384 0v128h128v-128h-128zM384 256v128h128v-128h-128zM384 640v128h128v-128h-128zM384 896v128h128v-128h-128zM512 0v128h128v-128h-128zM512 256v128h128v-128h-128zM512 640v128h128v-128h-128zM512 896 v128h128v-128h-128zM640 0v128h128v-128h-128zM640 896v128h128v-128h-128zM768 128v128h128v-128h-128zM768 256v128h128v-128h-128zM768 384v128h128v-128h-128zM768 512v128h128v-128h-128zM768 640v128h128v-128h-128zM768 768v128h128v-128h-128z" />
<glyph unicode="&#xaa;" d="M128 0v128h128v-128h-128zM128 128v128h128v-128h-128zM128 256v128h128v-128h-128zM128 384v128h128v-128h-128zM128 512v128h128v-128h-128zM256 512v128h128v-128h-128zM384 512v128h128v-128h-128zM512 0v128h128v-128h-128zM512 128v128h128v-128h-128zM512 256v128 h128v-128h-128zM512 384v128h128v-128h-128zM512 512v128h128v-128h-128z" />
<glyph unicode="&#xab;" d="M128 128v128h128v-128h-128zM256 0v128h128v-128h-128zM256 256v128h128v-128h-128zM384 128v128h128v-128h-128zM384 384v128h128v-128h-128zM512 0v128h128v-128h-128zM512 256v128h128v-128h-128zM640 384v128h128v-128h-128z" />
<glyph unicode="&#xac;" d="M128 0v128h128v-128h-128zM128 128v128h128v-128h-128zM128 256v128h128v-128h-128zM128 384v128h128v-128h-128zM128 512v128h128v-128h-128zM256 512v128h128v-128h-128zM384 512v128h128v-128h-128zM512 0v128h128v-128h-128zM512 128v128h128v-128h-128zM512 256v128 h128v-128h-128zM512 384v128h128v-128h-128zM512 512v128h128v-128h-128z" />
<glyph unicode="&#xad;" />
<glyph unicode="&#xae;" d="M0 128v128h128v-128h-128zM0 256v128h128v-128h-128zM0 384v128h128v-128h-128zM0 512v128h128v-128h-128zM0 640v128h128v-128h-128zM0 768v128h128v-128h-128zM128 0v128h128v-128h-128zM128 896v128h128v-128h-128zM256 0v128h128v-128h-128zM256 256v128h128v-128 h-128zM256 384v128h128v-128h-128zM256 512v128h128v-128h-128zM256 640v128h128v-128h-128zM256 896v128h128v-128h-128zM384 0v128h128v-128h-128zM384 384v128h128v-128h-128zM384 640v128h128v-128h-128zM384 896v128h128v-128h-128zM512 0v128h128v-128h-128zM512 256 v128h128v-128h-128zM512 512v128h128v-128h-128zM512 896v128h128v-128h-128zM640 0v128h128v-128h-128zM640 896v128h128v-128h-128zM768 128v128h128v-128h-128zM768 256v128h128v-128h-128zM768 384v128h128v-128h-128zM768 512v128h128v-128h-128zM768 640v128h128v-128 h-128zM768 768v128h128v-128h-128z" />
<glyph unicode="&#xaf;" />
<glyph unicode="&#xb0;" d="M256 384v128h128v-128h-128zM384 512v128h128v-128h-128zM512 384v128h128v-128h-128z" />
<glyph unicode="&#xb1;" d="M384 0v128h128v-128h-128zM384 128v128h128v-128h-128zM384 256v128h128v-128h-128zM384 384v128h128v-128h-128z" />
<glyph unicode="&#xb2;" d="M128 0v128h128v-128h-128zM128 128v128h128v-128h-128zM128 256v128h128v-128h-128zM128 384v128h128v-128h-128zM128 512v128h128v-128h-128zM256 512v128h128v-128h-128zM384 512v128h128v-128h-128zM512 0v128h128v-128h-128zM512 128v128h128v-128h-128zM512 256v128 h128v-128h-128zM512 384v128h128v-128h-128zM512 512v128h128v-128h-128z" />
<glyph unicode="&#xb3;" d="M128 0v128h128v-128h-128zM128 128v128h128v-128h-128zM128 256v128h128v-128h-128zM128 384v128h128v-128h-128zM128 512v128h128v-128h-128zM256 512v128h128v-128h-128zM384 512v128h128v-128h-128zM512 0v128h128v-128h-128zM512 128v128h128v-128h-128zM512 256v128 h128v-128h-128zM512 384v128h128v-128h-128zM512 512v128h128v-128h-128z" />
<glyph unicode="&#xb4;" d="M512 768v128h128v-128h-128z" />
<glyph unicode="&#xb5;" d="M128 0v128h128v-128h-128zM128 0h128v-128h-128v128zM128 -128h128v-128h-128v128zM128 128v128h128v-128h-128zM128 256v128h128v-128h-128zM128 384v128h128v-128h-128zM256 0h128v-128h-128v128zM384 0h128v-128h-128v128zM512 0v128h128v-128h-128zM640 0v128h128 v-128h-128zM640 0h128v-128h-128v128zM640 128v128h128v-128h-128zM640 256v128h128v-128h-128zM640 384v128h128v-128h-128z" />
<glyph unicode="&#xb6;" d="M128 0v128h128v-128h-128zM128 128v128h128v-128h-128zM128 256v128h128v-128h-128zM128 384v128h128v-128h-128zM128 512v128h128v-128h-128zM256 512v128h128v-128h-128zM384 512v128h128v-128h-128zM512 0v128h128v-128h-128zM512 128v128h128v-128h-128zM512 256v128 h128v-128h-128zM512 384v128h128v-128h-128zM512 512v128h128v-128h-128z" />
<glyph unicode="&#xb7;" d="M256 256v128h128v-128h-128zM384 256v128h128v-128h-128z" />
<glyph unicode="&#xb8;" d="M512 0h128v-128h-128v128z" />
<glyph unicode="&#xb9;" d="M256 512v128h128v-128h-128zM384 384v128h128v-128h-128zM384 512v128h128v-128h-128z" />
<glyph unicode="&#xba;" d="M128 256v128h128v-128h-128zM128 384v128h128v-128h-128zM256 512v128h128v-128h-128zM384 512v128h128v-128h-128zM512 256v128h128v-128h-128zM512 384v128h128v-128h-128z" />
<glyph unicode="&#xbb;" d="M128 384v128h128v-128h-128zM256 0v128h128v-128h-128zM256 256v128h128v-128h-128zM384 128v128h128v-128h-128zM384 384v128h128v-128h-128zM512 0v128h128v-128h-128zM512 256v128h128v-128h-128zM640 128v128h128v-128h-128z" />
<glyph unicode="&#xbc;" d="M128 0v128h128v-128h-128zM128 128v128h128v-128h-128zM128 256v128h128v-128h-128zM128 384v128h128v-128h-128zM128 512v128h128v-128h-128zM384 0v128h128v-128h-128zM384 256v128h128v-128h-128zM384 384v128h128v-128h-128zM512 0v128h128v-128h-128zM512 128v128 h128v-128h-128zM512 512v128h128v-128h-128zM640 0v128h128v-128h-128zM640 128v128h128v-128h-128zM768 0v128h128v-128h-128z" />
<glyph unicode="&#xbd;" d="M0 512v128h128v-128h-128zM128 0v128h128v-128h-128zM128 128v128h128v-128h-128zM128 256v128h128v-128h-128zM128 384v128h128v-128h-128zM128 512v128h128v-128h-128zM384 256v128h128v-128h-128zM384 384v128h128v-128h-128zM512 512v128h128v-128h-128zM640 0v128 h128v-128h-128zM768 128v128h128v-128h-128z" />
<glyph unicode="&#xbe;" d="M128 0v128h128v-128h-128zM128 128v128h128v-128h-128zM128 256v128h128v-128h-128zM128 384v128h128v-128h-128zM128 512v128h128v-128h-128zM256 512v128h128v-128h-128zM384 512v128h128v-128h-128zM512 0v128h128v-128h-128zM512 128v128h128v-128h-128zM512 256v128 h128v-128h-128zM512 384v128h128v-128h-128zM512 512v128h128v-128h-128z" />
<glyph unicode="&#xbf;" d="M128 0h128v-128h-128v128zM128 -128h128v-128h-128v128zM256 0v128h128v-128h-128zM384 128v128h128v-128h-128zM384 384v128h128v-128h-128zM640 -128h128v-128h-128v128z" />
<glyph unicode="&#xc0;" d="M128 0v128h128v-128h-128zM128 128v128h128v-128h-128zM128 256v128h128v-128h-128zM128 384v128h128v-128h-128zM128 512v128h128v-128h-128zM256 512v128h128v-128h-128zM384 512v128h128v-128h-128zM512 0v128h128v-128h-128zM512 128v128h128v-128h-128zM512 256v128 h128v-128h-128zM512 384v128h128v-128h-128zM512 512v128h128v-128h-128z" />
<glyph unicode="&#xc1;" d="M128 0v128h128v-128h-128zM128 128v128h128v-128h-128zM128 256v128h128v-128h-128zM128 384v128h128v-128h-128zM128 512v128h128v-128h-128zM256 512v128h128v-128h-128zM384 512v128h128v-128h-128zM512 0v128h128v-128h-128zM512 128v128h128v-128h-128zM512 256v128 h128v-128h-128zM512 384v128h128v-128h-128zM512 512v128h128v-128h-128z" />
<glyph unicode="&#xc2;" d="M128 0v128h128v-128h-128zM128 128v128h128v-128h-128zM128 256v128h128v-128h-128zM128 384v128h128v-128h-128zM128 512v128h128v-128h-128zM256 512v128h128v-128h-128zM384 512v128h128v-128h-128zM512 0v128h128v-128h-128zM512 128v128h128v-128h-128zM512 256v128 h128v-128h-128zM512 384v128h128v-128h-128zM512 512v128h128v-128h-128z" />
<glyph unicode="&#xc3;" d="M128 0v128h128v-128h-128zM128 128v128h128v-128h-128zM128 256v128h128v-128h-128zM128 384v128h128v-128h-128zM128 512v128h128v-128h-128zM256 512v128h128v-128h-128zM384 512v128h128v-128h-128zM512 0v128h128v-128h-128zM512 128v128h128v-128h-128zM512 256v128 h128v-128h-128zM512 384v128h128v-128h-128zM512 512v128h128v-128h-128z" />
<glyph unicode="&#xc4;" d="M128 0v128h128v-128h-128zM128 128v128h128v-128h-128zM256 256v128h128v-128h-128zM256 384v128h128v-128h-128zM256 896v128h128v-128h-128zM384 256v128h128v-128h-128zM384 512v128h128v-128h-128zM384 640v128h128v-128h-128zM512 256v128h128v-128h-128zM512 384 v128h128v-128h-128zM512 896v128h128v-128h-128zM640 0v128h128v-128h-128zM640 128v128h128v-128h-128z" />
<glyph unicode="&#xc5;" d="M128 0v128h128v-128h-128zM128 128v128h128v-128h-128zM256 256v128h128v-128h-128zM256 384v128h128v-128h-128zM256 768v128h128v-128h-128zM384 256v128h128v-128h-128zM384 512v128h128v-128h-128zM384 640v128h128v-128h-128zM384 896v128h128v-128h-128zM512 256 v128h128v-128h-128zM512 384v128h128v-128h-128zM512 768v128h128v-128h-128zM640 0v128h128v-128h-128zM640 128v128h128v-128h-128z" />
<glyph unicode="&#xc6;" d="M128 0v128h128v-128h-128zM128 128v128h128v-128h-128zM256 0v128h128v-128h-128zM256 256v128h128v-128h-128zM256 384v128h128v-128h-128zM384 0v128h128v-128h-128zM384 128v128h128v-128h-128zM384 256v128h128v-128h-128zM384 384v128h128v-128h-128zM384 512v128 h128v-128h-128zM512 512v128h128v-128h-128zM640 512v128h128v-128h-128z" />
<glyph unicode="&#xc7;" d="M128 0v128h128v-128h-128zM128 128v128h128v-128h-128zM128 256v128h128v-128h-128zM128 384v128h128v-128h-128zM128 512v128h128v-128h-128zM256 512v128h128v-128h-128zM384 512v128h128v-128h-128zM512 0v128h128v-128h-128zM512 128v128h128v-128h-128zM512 256v128 h128v-128h-128zM512 384v128h128v-128h-128zM512 512v128h128v-128h-128z" />
<glyph unicode="&#xc8;" d="M128 0v128h128v-128h-128zM128 128v128h128v-128h-128zM128 256v128h128v-128h-128zM128 384v128h128v-128h-128zM128 512v128h128v-128h-128zM256 512v128h128v-128h-128zM384 512v128h128v-128h-128zM512 0v128h128v-128h-128zM512 128v128h128v-128h-128zM512 256v128 h128v-128h-128zM512 384v128h128v-128h-128zM512 512v128h128v-128h-128z" />
<glyph unicode="&#xc9;" d="M128 0v128h128v-128h-128zM128 128v128h128v-128h-128zM128 256v128h128v-128h-128zM128 384v128h128v-128h-128zM128 512v128h128v-128h-128zM256 512v128h128v-128h-128zM384 512v128h128v-128h-128zM512 0v128h128v-128h-128zM512 128v128h128v-128h-128zM512 256v128 h128v-128h-128zM512 384v128h128v-128h-128zM512 512v128h128v-128h-128z" />
<glyph unicode="&#xca;" d="M128 0v128h128v-128h-128zM128 128v128h128v-128h-128zM128 256v128h128v-128h-128zM128 384v128h128v-128h-128zM128 512v128h128v-128h-128zM256 512v128h128v-128h-128zM384 512v128h128v-128h-128zM512 0v128h128v-128h-128zM512 128v128h128v-128h-128zM512 256v128 h128v-128h-128zM512 384v128h128v-128h-128zM512 512v128h128v-128h-128z" />
<glyph unicode="&#xcb;" d="M128 0v128h128v-128h-128zM128 128v128h128v-128h-128zM128 256v128h128v-128h-128zM128 384v128h128v-128h-128zM128 512v128h128v-128h-128zM256 512v128h128v-128h-128zM384 512v128h128v-128h-128zM512 0v128h128v-128h-128zM512 128v128h128v-128h-128zM512 256v128 h128v-128h-128zM512 384v128h128v-128h-128zM512 512v128h128v-128h-128z" />
<glyph unicode="&#xcc;" d="M128 0v128h128v-128h-128zM128 128v128h128v-128h-128zM128 256v128h128v-128h-128zM128 384v128h128v-128h-128zM128 512v128h128v-128h-128zM256 512v128h128v-128h-128zM384 512v128h128v-128h-128zM512 0v128h128v-128h-128zM512 128v128h128v-128h-128zM512 256v128 h128v-128h-128zM512 384v128h128v-128h-128zM512 512v128h128v-128h-128z" />
<glyph unicode="&#xcd;" d="M128 0v128h128v-128h-128zM128 128v128h128v-128h-128zM128 256v128h128v-128h-128zM128 384v128h128v-128h-128zM128 512v128h128v-128h-128zM256 512v128h128v-128h-128zM384 512v128h128v-128h-128zM512 0v128h128v-128h-128zM512 128v128h128v-128h-128zM512 256v128 h128v-128h-128zM512 384v128h128v-128h-128zM512 512v128h128v-128h-128z" />
<glyph unicode="&#xce;" d="M128 0v128h128v-128h-128zM128 128v128h128v-128h-128zM128 256v128h128v-128h-128zM128 384v128h128v-128h-128zM128 512v128h128v-128h-128zM256 512v128h128v-128h-128zM384 512v128h128v-128h-128zM512 0v128h128v-128h-128zM512 128v128h128v-128h-128zM512 256v128 h128v-128h-128zM512 384v128h128v-128h-128zM512 512v128h128v-128h-128z" />
<glyph unicode="&#xcf;" d="M128 0v128h128v-128h-128zM128 128v128h128v-128h-128zM128 256v128h128v-128h-128zM128 384v128h128v-128h-128zM128 512v128h128v-128h-128zM256 512v128h128v-128h-128zM384 512v128h128v-128h-128zM512 0v128h128v-128h-128zM512 128v128h128v-128h-128zM512 256v128 h128v-128h-128zM512 384v128h128v-128h-128zM512 512v128h128v-128h-128z" />
<glyph unicode="&#xd0;" d="M128 0v128h128v-128h-128zM128 128v128h128v-128h-128zM128 256v128h128v-128h-128zM128 384v128h128v-128h-128zM128 512v128h128v-128h-128zM256 512v128h128v-128h-128zM384 512v128h128v-128h-128zM512 0v128h128v-128h-128zM512 128v128h128v-128h-128zM512 256v128 h128v-128h-128zM512 384v128h128v-128h-128zM512 512v128h128v-128h-128z" />
<glyph unicode="&#xd1;" d="M128 0v128h128v-128h-128zM128 128v128h128v-128h-128zM128 256v128h128v-128h-128zM128 384v128h128v-128h-128zM128 512v128h128v-128h-128zM128 768v128h128v-128h-128zM256 384v128h128v-128h-128zM256 896v128h128v-128h-128zM384 256v128h128v-128h-128zM384 768 v128h128v-128h-128zM512 128v128h128v-128h-128zM512 896v128h128v-128h-128zM640 0v128h128v-128h-128zM640 128v128h128v-128h-128zM640 256v128h128v-128h-128zM640 384v128h128v-128h-128zM640 512v128h128v-128h-128z" />
<glyph unicode="&#xd2;" d="M128 0v128h128v-128h-128zM128 128v128h128v-128h-128zM128 256v128h128v-128h-128zM128 384v128h128v-128h-128zM128 512v128h128v-128h-128zM256 512v128h128v-128h-128zM384 512v128h128v-128h-128zM512 0v128h128v-128h-128zM512 128v128h128v-128h-128zM512 256v128 h128v-128h-128zM512 384v128h128v-128h-128zM512 512v128h128v-128h-128z" />
<glyph unicode="&#xd3;" d="M128 0v128h128v-128h-128zM128 128v128h128v-128h-128zM128 256v128h128v-128h-128zM128 384v128h128v-128h-128zM128 512v128h128v-128h-128zM256 512v128h128v-128h-128zM384 512v128h128v-128h-128zM512 0v128h128v-128h-128zM512 128v128h128v-128h-128zM512 256v128 h128v-128h-128zM512 384v128h128v-128h-128zM512 512v128h128v-128h-128z" />
<glyph unicode="&#xd4;" d="M128 0v128h128v-128h-128zM128 128v128h128v-128h-128zM128 256v128h128v-128h-128zM128 384v128h128v-128h-128zM128 512v128h128v-128h-128zM256 512v128h128v-128h-128zM384 512v128h128v-128h-128zM512 0v128h128v-128h-128zM512 128v128h128v-128h-128zM512 256v128 h128v-128h-128zM512 384v128h128v-128h-128zM512 512v128h128v-128h-128z" />
<glyph unicode="&#xd5;" d="M128 0v128h128v-128h-128zM128 128v128h128v-128h-128zM128 256v128h128v-128h-128zM128 384v128h128v-128h-128zM128 512v128h128v-128h-128zM256 512v128h128v-128h-128zM384 512v128h128v-128h-128zM512 0v128h128v-128h-128zM512 128v128h128v-128h-128zM512 256v128 h128v-128h-128zM512 384v128h128v-128h-128zM512 512v128h128v-128h-128z" />
<glyph unicode="&#xd6;" d="M128 0v128h128v-128h-128zM128 128v128h128v-128h-128zM128 256v128h128v-128h-128zM128 384v128h128v-128h-128zM128 512v128h128v-128h-128zM256 512v128h128v-128h-128zM384 512v128h128v-128h-128zM512 0v128h128v-128h-128zM512 128v128h128v-128h-128zM512 256v128 h128v-128h-128zM512 384v128h128v-128h-128zM512 512v128h128v-128h-128z" />
<glyph unicode="&#xd7;" d="M0 384v128h128v-128h-128zM128 0v128h128v-128h-128zM128 256v128h128v-128h-128zM256 128v128h128v-128h-128zM384 128v128h128v-128h-128zM512 0v128h128v-128h-128zM512 256v128h128v-128h-128zM640 384v128h128v-128h-128z" />
<glyph unicode="&#xd8;" d="M0 128v128h128v-128h-128zM0 256v128h128v-128h-128zM128 0v128h128v-128h-128zM128 384v128h128v-128h-128zM256 128v128h128v-128h-128zM256 512v128h128v-128h-128zM384 256v128h128v-128h-128zM384 512v128h128v-128h-128zM512 0v128h128v-128h-128zM512 384v128h128 v-128h-128zM640 128v128h128v-128h-128zM640 256v128h128v-128h-128z" />
<glyph unicode="&#xd9;" d="M128 0v128h128v-128h-128zM128 128v128h128v-128h-128zM128 256v128h128v-128h-128zM128 384v128h128v-128h-128zM128 512v128h128v-128h-128zM256 768v128h128v-128h-128zM384 640v128h128v-128h-128zM640 0v128h128v-128h-128zM640 128v128h128v-128h-128zM640 256v128 h128v-128h-128zM640 384v128h128v-128h-128zM640 512v128h128v-128h-128z" />
<glyph unicode="&#xda;" d="M128 0v128h128v-128h-128zM128 128v128h128v-128h-128zM128 256v128h128v-128h-128zM128 384v128h128v-128h-128zM128 512v128h128v-128h-128zM512 640v128h128v-128h-128zM640 0v128h128v-128h-128zM640 128v128h128v-128h-128zM640 256v128h128v-128h-128zM640 384v128 h128v-128h-128zM640 512v128h128v-128h-128zM640 768v128h128v-128h-128z" />
<glyph unicode="&#xdb;" d="M128 0v128h128v-128h-128zM128 128v128h128v-128h-128zM128 256v128h128v-128h-128zM128 384v128h128v-128h-128zM128 512v128h128v-128h-128zM256 512v128h128v-128h-128zM384 512v128h128v-128h-128zM512 0v128h128v-128h-128zM512 128v128h128v-128h-128zM512 256v128 h128v-128h-128zM512 384v128h128v-128h-128zM512 512v128h128v-128h-128z" />
<glyph unicode="&#xdc;" d="M128 0v128h128v-128h-128zM128 128v128h128v-128h-128zM128 256v128h128v-128h-128zM128 384v128h128v-128h-128zM128 512v128h128v-128h-128zM128 768v128h128v-128h-128zM512 768v128h128v-128h-128zM640 0v128h128v-128h-128zM640 128v128h128v-128h-128zM640 256v128 h128v-128h-128zM640 384v128h128v-128h-128zM640 512v128h128v-128h-128z" />
<glyph unicode="&#xdd;" d="M128 0v128h128v-128h-128zM128 128v128h128v-128h-128zM128 256v128h128v-128h-128zM128 384v128h128v-128h-128zM128 512v128h128v-128h-128zM256 512v128h128v-128h-128zM384 512v128h128v-128h-128zM512 0v128h128v-128h-128zM512 128v128h128v-128h-128zM512 256v128 h128v-128h-128zM512 384v128h128v-128h-128zM512 512v128h128v-128h-128z" />
<glyph unicode="&#xde;" d="M128 0v128h128v-128h-128zM128 128v128h128v-128h-128zM128 256v128h128v-128h-128zM128 384v128h128v-128h-128zM128 512v128h128v-128h-128zM256 0v128h128v-128h-128zM256 384v128h128v-128h-128zM384 0v128h128v-128h-128zM384 384v128h128v-128h-128zM512 0v128h128 v-128h-128zM512 384v128h128v-128h-128zM640 128v128h128v-128h-128zM640 256v128h128v-128h-128z" />
<glyph unicode="&#xdf;" d="M128 0v128h128v-128h-128zM128 128v128h128v-128h-128zM128 256v128h128v-128h-128zM128 384v128h128v-128h-128zM128 512v128h128v-128h-128zM256 640v128h128v-128h-128zM384 256v128h128v-128h-128zM384 640v128h128v-128h-128zM512 128v128h128v-128h-128zM512 384 v128h128v-128h-128zM512 512v128h128v-128h-128zM512 640v128h128v-128h-128zM640 0v128h128v-128h-128z" />
<glyph unicode="&#xe0;" d="M128 0v128h128v-128h-128zM128 128v128h128v-128h-128zM256 256v128h128v-128h-128zM256 384v128h128v-128h-128zM256 768v128h128v-128h-128zM384 256v128h128v-128h-128zM384 384v128h128v-128h-128zM384 640v128h128v-128h-128zM512 256v128h128v-128h-128zM512 384 v128h128v-128h-128zM640 0v128h128v-128h-128zM640 128v128h128v-128h-128zM640 256v128h128v-128h-128z" />
<glyph unicode="&#xe1;" d="M128 0v128h128v-128h-128zM128 128v128h128v-128h-128zM256 256v128h128v-128h-128zM256 384v128h128v-128h-128zM384 256v128h128v-128h-128zM384 384v128h128v-128h-128zM384 640v128h128v-128h-128zM512 256v128h128v-128h-128zM512 384v128h128v-128h-128zM512 768 v128h128v-128h-128zM640 0v128h128v-128h-128zM640 128v128h128v-128h-128zM640 256v128h128v-128h-128z" />
<glyph unicode="&#xe2;" d="M128 0v128h128v-128h-128zM128 128v128h128v-128h-128zM128 640v128h128v-128h-128zM256 256v128h128v-128h-128zM256 384v128h128v-128h-128zM256 768v128h128v-128h-128zM384 256v128h128v-128h-128zM384 384v128h128v-128h-128zM384 768v128h128v-128h-128zM512 256 v128h128v-128h-128zM512 384v128h128v-128h-128zM512 640v128h128v-128h-128zM640 0v128h128v-128h-128zM640 128v128h128v-128h-128zM640 256v128h128v-128h-128z" />
<glyph unicode="&#xe3;" d="M128 0v128h128v-128h-128zM128 128v128h128v-128h-128zM256 256v128h128v-128h-128zM256 384v128h128v-128h-128zM256 640v128h128v-128h-128zM384 256v128h128v-128h-128zM384 384v128h128v-128h-128zM384 768v128h128v-128h-128zM512 256v128h128v-128h-128zM512 384 v128h128v-128h-128zM512 640v128h128v-128h-128zM640 0v128h128v-128h-128zM640 128v128h128v-128h-128zM640 256v128h128v-128h-128zM640 768v128h128v-128h-128z" />
<glyph unicode="&#xe4;" d="M128 0v128h128v-128h-128zM128 128v128h128v-128h-128zM256 256v128h128v-128h-128zM256 384v128h128v-128h-128zM256 640v128h128v-128h-128zM384 256v128h128v-128h-128zM384 384v128h128v-128h-128zM512 256v128h128v-128h-128zM512 384v128h128v-128h-128zM512 640 v128h128v-128h-128zM640 0v128h128v-128h-128zM640 128v128h128v-128h-128zM640 256v128h128v-128h-128z" />
<glyph unicode="&#xe5;" d="M128 0v128h128v-128h-128zM128 128v128h128v-128h-128zM256 256v128h128v-128h-128zM256 384v128h128v-128h-128zM256 640v128h128v-128h-128zM384 256v128h128v-128h-128zM384 384v128h128v-128h-128zM384 512v128h128v-128h-128zM384 768v128h128v-128h-128zM512 256 v128h128v-128h-128zM512 384v128h128v-128h-128zM512 640v128h128v-128h-128zM640 0v128h128v-128h-128zM640 128v128h128v-128h-128zM640 256v128h128v-128h-128z" />
<glyph unicode="&#xe6;" d="M0 0v128h128v-128h-128zM0 128v128h128v-128h-128zM0 384v128h128v-128h-128zM128 384v128h128v-128h-128zM256 384v128h128v-128h-128zM384 0v128h128v-128h-128zM384 128v128h128v-128h-128zM384 256v128h128v-128h-128zM512 384v128h128v-128h-128zM640 256v128h128 v-128h-128zM640 384v128h128v-128h-128z" />
<glyph unicode="&#xe7;" d="M128 0v128h128v-128h-128zM128 128v128h128v-128h-128zM128 256v128h128v-128h-128zM256 0h128v-128h-128v128zM256 384v128h128v-128h-128zM384 0h128v-128h-128v128zM384 384v128h128v-128h-128zM512 0h128v-128h-128v128zM512 -128h128v-128h-128v128zM512 384v128 h128v-128h-128zM640 0h128v-128h-128v128zM640 384v128h128v-128h-128z" />
<glyph unicode="&#xe8;" d="M128 0v128h128v-128h-128zM128 128v128h128v-128h-128zM128 256v128h128v-128h-128zM256 256v128h128v-128h-128zM256 384v128h128v-128h-128zM256 768v128h128v-128h-128zM384 256v128h128v-128h-128zM384 384v128h128v-128h-128zM384 640v128h128v-128h-128zM512 256 v128h128v-128h-128zM512 384v128h128v-128h-128zM640 256v128h128v-128h-128z" />
<glyph unicode="&#xe9;" d="M128 0v128h128v-128h-128zM128 128v128h128v-128h-128zM128 256v128h128v-128h-128zM256 256v128h128v-128h-128zM256 384v128h128v-128h-128zM384 256v128h128v-128h-128zM384 384v128h128v-128h-128zM384 640v128h128v-128h-128zM512 256v128h128v-128h-128zM512 384 v128h128v-128h-128zM512 768v128h128v-128h-128zM640 256v128h128v-128h-128z" />
<glyph unicode="&#xea;" d="M128 0v128h128v-128h-128zM128 128v128h128v-128h-128zM128 256v128h128v-128h-128zM128 640v128h128v-128h-128zM256 256v128h128v-128h-128zM256 384v128h128v-128h-128zM256 768v128h128v-128h-128zM384 256v128h128v-128h-128zM384 384v128h128v-128h-128zM384 768 v128h128v-128h-128zM512 256v128h128v-128h-128zM512 384v128h128v-128h-128zM512 640v128h128v-128h-128zM640 256v128h128v-128h-128z" />
<glyph unicode="&#xeb;" d="M128 0v128h128v-128h-128zM128 128v128h128v-128h-128zM128 256v128h128v-128h-128zM128 384v128h128v-128h-128zM128 512v128h128v-128h-128zM256 512v128h128v-128h-128zM384 512v128h128v-128h-128zM512 0v128h128v-128h-128zM512 128v128h128v-128h-128zM512 256v128 h128v-128h-128zM512 384v128h128v-128h-128zM512 512v128h128v-128h-128z" />
<glyph unicode="&#xec;" d="M256 384v128h128v-128h-128zM256 768v128h128v-128h-128zM384 0v128h128v-128h-128zM384 128v128h128v-128h-128zM384 256v128h128v-128h-128zM384 384v128h128v-128h-128zM384 640v128h128v-128h-128z" />
<glyph unicode="&#xed;" d="M256 384v128h128v-128h-128zM384 0v128h128v-128h-128zM384 128v128h128v-128h-128zM384 256v128h128v-128h-128zM384 384v128h128v-128h-128zM384 640v128h128v-128h-128zM512 768v128h128v-128h-128z" />
<glyph unicode="&#xee;" d="M128 640v128h128v-128h-128zM256 384v128h128v-128h-128zM256 768v128h128v-128h-128zM384 0v128h128v-128h-128zM384 128v128h128v-128h-128zM384 256v128h128v-128h-128zM384 384v128h128v-128h-128zM384 768v128h128v-128h-128zM512 640v128h128v-128h-128z" />
<glyph unicode="&#xef;" d="M256 384v128h128v-128h-128zM256 640v128h128v-128h-128zM384 0v128h128v-128h-128zM384 128v128h128v-128h-128zM384 256v128h128v-128h-128zM384 384v128h128v-128h-128zM512 640v128h128v-128h-128z" />
<glyph unicode="&#xf0;" d="M128 0v128h128v-128h-128zM128 128v128h128v-128h-128zM128 256v128h128v-128h-128zM128 512v128h128v-128h-128zM256 384v128h128v-128h-128zM256 640v128h128v-128h-128zM384 384v128h128v-128h-128zM384 640v128h128v-128h-128zM512 384v128h128v-128h-128zM512 512 v128h128v-128h-128zM640 0v128h128v-128h-128zM640 128v128h128v-128h-128zM640 256v128h128v-128h-128z" />
<glyph unicode="&#xf1;" d="M128 0v128h128v-128h-128zM128 128v128h128v-128h-128zM128 256v128h128v-128h-128zM128 384v128h128v-128h-128zM128 512v128h128v-128h-128zM128 768v128h128v-128h-128zM256 512v128h128v-128h-128zM256 896v128h128v-128h-128zM384 512v128h128v-128h-128zM384 768 v128h128v-128h-128zM512 512v128h128v-128h-128zM512 896v128h128v-128h-128zM640 0v128h128v-128h-128zM640 128v128h128v-128h-128zM640 256v128h128v-128h-128zM640 384v128h128v-128h-128z" />
<glyph unicode="&#xf2;" d="M128 0v128h128v-128h-128zM128 128v128h128v-128h-128zM128 256v128h128v-128h-128zM256 384v128h128v-128h-128zM256 768v128h128v-128h-128zM384 384v128h128v-128h-128zM384 640v128h128v-128h-128zM512 384v128h128v-128h-128zM640 0v128h128v-128h-128zM640 128v128 h128v-128h-128zM640 256v128h128v-128h-128z" />
<glyph unicode="&#xf3;" d="M128 0v128h128v-128h-128zM128 128v128h128v-128h-128zM128 256v128h128v-128h-128zM256 384v128h128v-128h-128zM256 640v128h128v-128h-128zM384 384v128h128v-128h-128zM384 768v128h128v-128h-128zM512 384v128h128v-128h-128zM640 0v128h128v-128h-128zM640 128v128 h128v-128h-128zM640 256v128h128v-128h-128z" />
<glyph unicode="&#xf4;" d="M128 0v128h128v-128h-128zM128 128v128h128v-128h-128zM128 256v128h128v-128h-128zM128 640v128h128v-128h-128zM256 384v128h128v-128h-128zM256 768v128h128v-128h-128zM384 384v128h128v-128h-128zM384 768v128h128v-128h-128zM512 384v128h128v-128h-128zM512 640 v128h128v-128h-128zM640 0v128h128v-128h-128zM640 128v128h128v-128h-128zM640 256v128h128v-128h-128z" />
<glyph unicode="&#xf5;" d="M128 0v128h128v-128h-128zM128 128v128h128v-128h-128zM128 256v128h128v-128h-128zM256 384v128h128v-128h-128zM256 640v128h128v-128h-128zM384 384v128h128v-128h-128zM384 768v128h128v-128h-128zM512 384v128h128v-128h-128zM512 640v128h128v-128h-128zM640 0v128 h128v-128h-128zM640 128v128h128v-128h-128zM640 256v128h128v-128h-128zM640 768v128h128v-128h-128z" />
<glyph unicode="&#xf6;" d="M128 0v128h128v-128h-128zM128 128v128h128v-128h-128zM128 256v128h128v-128h-128zM256 384v128h128v-128h-128zM256 640v128h128v-128h-128zM384 384v128h128v-128h-128zM512 384v128h128v-128h-128zM512 640v128h128v-128h-128zM640 0v128h128v-128h-128zM640 128v128 h128v-128h-128zM640 256v128h128v-128h-128z" />
<glyph unicode="&#xf7;" d="M128 128v128h128v-128h-128zM256 128v128h128v-128h-128zM384 128v128h128v-128h-128zM384 384v128h128v-128h-128zM512 128v128h128v-128h-128zM640 128v128h128v-128h-128z" />
<glyph unicode="&#xf8;" d="M128 0v128h128v-128h-128zM128 128v128h128v-128h-128zM128 256v128h128v-128h-128zM256 0v128h128v-128h-128zM256 128v128h128v-128h-128zM256 384v128h128v-128h-128zM384 384v128h128v-128h-128zM512 256v128h128v-128h-128zM512 384v128h128v-128h-128zM640 0v128 h128v-128h-128zM640 128v128h128v-128h-128zM640 256v128h128v-128h-128zM640 384v128h128v-128h-128z" />
<glyph unicode="&#xf9;" d="M128 0v128h128v-128h-128zM128 128v128h128v-128h-128zM128 256v128h128v-128h-128zM128 384v128h128v-128h-128zM256 768v128h128v-128h-128zM384 640v128h128v-128h-128zM640 0v128h128v-128h-128zM640 128v128h128v-128h-128zM640 256v128h128v-128h-128zM640 384v128 h128v-128h-128z" />
<glyph unicode="&#xfa;" d="M128 0v128h128v-128h-128zM128 128v128h128v-128h-128zM128 256v128h128v-128h-128zM128 384v128h128v-128h-128zM256 640v128h128v-128h-128zM384 768v128h128v-128h-128zM640 0v128h128v-128h-128zM640 128v128h128v-128h-128zM640 256v128h128v-128h-128zM640 384v128 h128v-128h-128z" />
<glyph unicode="&#xfb;" d="M128 0v128h128v-128h-128zM128 128v128h128v-128h-128zM128 256v128h128v-128h-128zM128 384v128h128v-128h-128zM128 640v128h128v-128h-128zM256 768v128h128v-128h-128zM384 768v128h128v-128h-128zM512 640v128h128v-128h-128zM640 0v128h128v-128h-128zM640 128v128 h128v-128h-128zM640 256v128h128v-128h-128zM640 384v128h128v-128h-128z" />
<glyph unicode="&#xfc;" d="M128 0v128h128v-128h-128zM128 128v128h128v-128h-128zM128 256v128h128v-128h-128zM128 384v128h128v-128h-128zM256 640v128h128v-128h-128zM512 640v128h128v-128h-128zM640 0v128h128v-128h-128zM640 128v128h128v-128h-128zM640 256v128h128v-128h-128zM640 384v128 h128v-128h-128z" />
<glyph unicode="&#xfd;" d="M128 0v128h128v-128h-128zM128 128v128h128v-128h-128zM128 256v128h128v-128h-128zM128 384v128h128v-128h-128zM128 512v128h128v-128h-128zM256 512v128h128v-128h-128zM384 512v128h128v-128h-128zM512 0v128h128v-128h-128zM512 128v128h128v-128h-128zM512 256v128 h128v-128h-128zM512 384v128h128v-128h-128zM512 512v128h128v-128h-128z" />
<glyph unicode="&#xfe;" d="M128 0v128h128v-128h-128zM128 0h128v-128h-128v128zM128 -128h128v-128h-128v128zM128 128v128h128v-128h-128zM128 256v128h128v-128h-128zM128 384v128h128v-128h-128zM128 512v128h128v-128h-128zM128 640v128h128v-128h-128zM256 0h128v-128h-128v128zM256 256v128 h128v-128h-128zM384 0h128v-128h-128v128zM384 384v128h128v-128h-128zM512 0h128v-128h-128v128zM512 384v128h128v-128h-128zM640 0v128h128v-128h-128zM640 128v128h128v-128h-128zM640 256v128h128v-128h-128z" />
<glyph unicode="&#xff;" d="M0 0h128v-128h-128v128zM0 0v128h128v-128h-128zM0 -128h128v-128h-128v128zM0 128v128h128v-128h-128zM0 256v128h128v-128h-128zM0 384v128h128v-128h-128zM0 512v128h128v-128h-128zM0 640v128h128v-128h-128zM0 768v128h128v-128h-128zM0 896v128h128v-128h-128z M128 -128h128v-128h-128v128zM128 896v128h128v-128h-128zM256 -128h128v-128h-128v128zM256 896v128h128v-128h-128zM384 -128h128v-128h-128v128zM384 896v128h128v-128h-128zM512 -128h128v-128h-128v128zM512 896v128h128v-128h-128zM640 -128h128v-128h-128v128z M640 896v128h128v-128h-128zM768 0v128h128v-128h-128zM768 0h128v-128h-128v128zM768 -128h128v-128h-128v128zM768 128v128h128v-128h-128zM768 256v128h128v-128h-128zM768 384v128h128v-128h-128zM768 512v128h128v-128h-128zM768 640v128h128v-128h-128zM768 768v128 h128v-128h-128zM768 896v128h128v-128h-128z" />
<glyph unicode="&#x2000;" horiz-adv-x="682" />
<glyph unicode="&#x2001;" horiz-adv-x="1365" />
<glyph unicode="&#x2002;" horiz-adv-x="682" />
<glyph unicode="&#x2003;" horiz-adv-x="1365" />
<glyph unicode="&#x2004;" horiz-adv-x="455" />
<glyph unicode="&#x2005;" horiz-adv-x="341" />
<glyph unicode="&#x2006;" horiz-adv-x="227" />
<glyph unicode="&#x2007;" horiz-adv-x="227" />
<glyph unicode="&#x2008;" horiz-adv-x="170" />
<glyph unicode="&#x2009;" horiz-adv-x="273" />
<glyph unicode="&#x200a;" horiz-adv-x="75" />
<glyph unicode="&#x2010;" d="M128 384v128h128v-128h-128zM256 384v128h128v-128h-128zM384 384v128h128v-128h-128zM512 384v128h128v-128h-128zM640 384v128h128v-128h-128z" />
<glyph unicode="&#x2011;" d="M128 384v128h128v-128h-128zM256 384v128h128v-128h-128zM384 384v128h128v-128h-128zM512 384v128h128v-128h-128zM640 384v128h128v-128h-128z" />
<glyph unicode="&#x2012;" d="M128 384v128h128v-128h-128zM256 384v128h128v-128h-128zM384 384v128h128v-128h-128zM512 384v128h128v-128h-128zM640 384v128h128v-128h-128z" />
<glyph unicode="&#x2013;" horiz-adv-x="1280" d="M128 384v128h205v-128h-205zM333 384v128h205v-128h-205zM538 384v128h204v-128h-204zM742 384v128h205v-128h-205zM947 384v128h205v-128h-205z" />
<glyph unicode="&#x2014;" horiz-adv-x="2304" d="M128 384v128h410v-128h-410zM538 384v128h409v-128h-409zM947 384v128h410v-128h-410zM1357 384v128h409v-128h-409zM1766 384v128h410v-128h-410z" />
<glyph unicode="&#x202f;" horiz-adv-x="273" />
<glyph unicode="&#x205f;" horiz-adv-x="341" />
<glyph unicode="&#x20ac;" d="M0 256v128h128v-128h-128zM0 512v128h128v-128h-128zM128 128v128h128v-128h-128zM128 256v128h128v-128h-128zM128 384v128h128v-128h-128zM128 512v128h128v-128h-128zM128 640v128h128v-128h-128zM256 0v128h128v-128h-128zM256 256v128h128v-128h-128zM256 512v128 h128v-128h-128zM256 768v128h128v-128h-128zM384 0v128h128v-128h-128zM384 256v128h128v-128h-128zM384 512v128h128v-128h-128zM384 768v128h128v-128h-128zM512 0v128h128v-128h-128zM512 768v128h128v-128h-128zM640 128v128h128v-128h-128zM640 640v128h128v-128h-128z " />
<glyph unicode="&#x25fc;" horiz-adv-x="640" d="M0 0v640h640v-640h-640z" />
</font>
</defs>
</svg>
