<?xml version="1.0" standalone="no"?>
<!DOCTYPE svg PUBLIC "-//W3C//DTD SVG 1.1//EN" "http://www.w3.org/Graphics/SVG/1.1/DTD/svg11.dtd" >
<svg xmlns="http://www.w3.org/2000/svg">
<metadata></metadata>
<defs>
<font id="star_jediregular" horiz-adv-x="1515" >
<font-face units-per-em="2048" ascent="1638" descent="-410" />
<missing-glyph horiz-adv-x="950" />
<glyph horiz-adv-x="2048" />
<glyph horiz-adv-x="2048" />
<glyph unicode="&#xd;" horiz-adv-x="0" />
<glyph unicode=" "  horiz-adv-x="950" />
<glyph unicode="&#x09;" horiz-adv-x="950" />
<glyph unicode="&#xa0;" horiz-adv-x="950" />
<glyph unicode="!" horiz-adv-x="872" d="M162 1444h549l-80 -909h-389zM213 0v385h446v-385h-446z" />
<glyph unicode="&#x22;" horiz-adv-x="1139" d="M197 813v631h307v-631h-307zM635 813v631h307v-631h-307z" />
<glyph unicode="#" horiz-adv-x="2035" d="M62 886q-27 235 63 491l34 62l14 7q-7 28 125 194l83 76q242 180 463 201h256q194 -35 339 -125q388 -242 443 -706l-7 -235l-41 -166l-42 -97l-14 -7q-97 -214 -339 -373q-131 -83 -346 -118h-242l-118 21l-13 14l-90 20l-146 76l-103 70l-90 90q-194 235 -229 505z M159 1093q-7 -318 76 -456q28 -7 42 13l-49 139l70 27h6l-20 146q-7 55 20 214l-76 21l42 131l-14 28l-35 -7zM284 1460l7 -21l27 -14l90 111h28l34 -42l21 -6q139 138 291 173l-21 89l152 21h7l-7 56l-145 -21l-118 -42l-152 -83q-90 -76 -131 -131h-21zM291 547 q-7 -21 41 -70l152 -145l173 -97l222 -55h48v48l-152 21l14 90q-159 55 -215 97q-55 34 -83 76l-48 -55h-28l-90 110zM457 803l90 -153l20 7l49 56q48 20 131 103h21l35 -34l76 -42l48 -14l-41 -228v-41h173l-42 269l104 42l62 55l118 -97h14l69 -69q27 0 97 146v20l-236 76 q-20 0 -13 35q20 35 13 97l-13 76q27 0 249 90l-21 55l-69 90v14l-208 -173q-97 83 -166 90l35 270l-35 7l-145 -7l48 -270q-104 -28 -159 -90h-21l-186 159h-14l-83 -138v-21l256 -90q-21 -14 -14 -159l14 -28l-14 -13h-28q-152 -77 -201 -77zM1010 1820l7 -49l111 -7 l34 -14l-13 -89q242 -77 290 -167l21 7l48 49l28 -35q21 7 69 -76q14 -7 42 21l-42 69h-21l-20 42l-83 83q-166 124 -450 173zM1024 180l125 14q103 27 235 90q55 27 173 138l97 118v20l-28 14l-28 -14l-14 -41l-55 -55h-21l-41 48h-21l-104 -97l-131 -62l-56 -14l14 -76 q-55 -35 -138 -35zM1633 830l76 -20l-42 -153q28 0 28 -14q28 -6 62 125l28 159q7 139 -14 256l-69 187l-41 -21l48 -138l-62 -21q-21 -7 -14 -41q41 -56 0 -319z" />
<glyph unicode="$" horiz-adv-x="2059" d="M102 877q-29 547 398 860h14q-114 -149 -170 -327l-15 -135q36 -355 299 -462q128 -14 199 64q21 0 78 171v184l-42 121q-107 164 -185 192q14 50 85 121l29 -7q71 -57 120 -149h8q7 64 -22 156l-57 100l171 199l171 -206l-64 -107l-15 -50l-7 -99h15l78 121l50 42 q21 7 64 -42l42 -64l-121 -114l-85 -128q-114 -406 171 -505q156 -14 263 121q71 85 121 284q42 228 -178 519q334 -206 405 -647v-213q-28 -206 -92 -327q-256 -448 -740 -498q-426 -21 -704 242q-270 277 -284 583z" />
<glyph unicode="%" horiz-adv-x="1923" d="M76 1173l21 14l195 -42l90 -6q35 76 55 69v28l-55 104q-56 55 -7 83h28l34 -41l28 -7q70 -98 181 0q-28 69 -28 138q-21 28 -14 77q-35 21 -14 97l35 -14l76 -90v-28l63 -62l34 -63v-97l-20 -21l-63 -21l-28 -27l-48 -21l-56 -42l-76 -90q-14 -63 -35 -70l-14 -48v-56 q-41 -21 -7 -208l56 -132l41 -62l70 -49l28 -49l69 -27l42 -49l139 -28l13 -21h125l84 42q34 -14 125 35l27 48q42 0 56 28v28l35 21l83 132q14 145 42 152l-21 56v49l-28 34q14 28 0 56q-21 21 -14 48q-35 21 -41 63l-98 104l-187 111l-14 76l28 70l48 55l7 35 q70 104 84 97l20 42l28 -7v-76l-28 -77q7 -55 -20 -118l7 -55l48 -35h70l138 83l28 -7l-28 -69l-41 -42l-7 -34l-35 -35l42 -77l146 14q125 42 166 7l-111 -97l-69 -35l-35 -41l21 -97q76 -42 132 -42l48 -28l7 -21q-55 -34 -173 -48q-28 -14 -28 -139l111 -49l97 -83 l-14 -21l-104 21q-62 -7 -104 21q-56 7 -97 -21l7 -76l76 -132v-35h-28l-20 21l-132 62q-84 0 -91 -62q-7 -21 21 -104q-21 -14 21 -132l-14 -28q-21 -7 -41 21q-84 111 -84 139l-48 55q-35 14 -105 0l-27 -41q14 -56 -35 -139l-49 7q-20 27 -13 139q-42 69 -139 27 l-104 -159l-42 -35l-21 21v41l14 28l14 125q62 49 -49 111h-41l-42 -35l-104 -48l-28 7l21 76l48 42v41q35 35 21 49l-48 63h-77q-145 -42 -208 -35q-14 35 7 42l69 34l63 56l48 14q56 76 28 104l-69 34l-139 35v21l187 49q42 76 0 125l-215 125zM680 771l14 152l28 35 q-28 56 167 146h76l139 -63q76 21 125 -215q7 -62 -49 -153l-48 -55l-98 -49q-159 -21 -256 49l-21 14zM687 1701q-7 42 21 48l70 28q34 0 41 -28q-14 -104 0 -208l-21 -21l-34 14l-21 77zM854 1395l7 84l21 48q-21 35 14 132l-14 97l21 70v118l13 21h21q7 -49 21 -49v-62 l14 -28l14 -104l-7 -42q48 -160 42 -215q-14 -63 0 -125l-21 -21h-118q-28 21 -28 76zM1062 1562v187l14 21q97 -21 111 -48l-69 -160l-21 -21q-35 7 -35 21z" />
<glyph unicode="&#x26;" horiz-adv-x="1887" d="M77 794l27 42l216 132q28 28 0 112l-195 48q-7 28 14 28l119 28l14 14q104 14 48 119q-7 -14 -209 125q-7 35 21 35l209 -42l77 7l35 56q7 21 -21 55v42l-49 35l-21 56l7 28l56 -14l97 -49q42 -63 126 42q-7 48 -21 48v70l-28 91l7 55l28 -7l77 -90q0 -35 62 -98 q42 -21 91 -14l42 35q-7 119 20 154q56 7 56 -14q28 -56 28 -140q21 -42 132 -28l42 49l49 105l56 62l35 -14l-28 -104l7 -56q-56 -83 28 -153l62 7l119 56l14 21h27v-35l-76 -140q-28 -83 28 -90h69q133 42 209 35q7 -28 -104 -105q-21 7 -98 -49l7 -118l14 -14l160 -35 l21 -21l-69 -48q-28 20 -119 -42l-21 -105l209 -146l7 -14l-21 -14h-90q-70 28 -202 35q-28 -70 -42 -63v-21q49 -27 49 -69q69 -84 55 -105l-167 77q-125 0 -118 -91l21 -62q0 -98 28 -147l-7 -69l-35 14l-7 27l-35 28q-70 98 -63 119q-34 14 -48 55l-21 56l14 77l181 111 l111 112q0 42 35 62q-7 21 21 77l-7 28l28 42q-7 28 21 90q-35 21 -42 147l-28 27l-14 49l-42 63l-34 21v28l-63 34l-21 21q7 28 -77 56q-90 0 -132 42h-125l-14 -21q-63 0 -154 -35q0 -21 -83 -69l-56 -63q-97 -35 -167 -328v-76l21 -42v-56l55 -132l70 -77 q167 -104 202 -111l14 -21q7 -98 -21 -132q-35 -56 -76 -84v-28l-91 -104l-28 7v69l21 28v49l21 49v55q21 49 14 70l-70 35l-62 -7q-28 -7 -42 -42q-42 -7 -63 -49l-49 14v49q98 125 84 146l-42 35l-14 42q-70 7 -265 -49zM683 1142v56l76 139l126 63h153l104 -56l56 -69 l35 -105l-28 -146l-56 -91l-146 -48l-35 -21h-76l-98 49l-70 62v35q-34 7 -41 132zM690 230v35l55 90l21 77l14 14q21 7 42 -21q-14 -105 0 -209l-21 -28zM857 564q0 70 28 84h118l21 -21q-14 -49 0 -153l-21 -133l-11 -59l-3 -38l-17 -258l-20 -224q-6 -34 -14 -102 q-32 347 -32 361l-14 123l-2 74l-6 90l-10 114v32q-17 34 -17 110zM886 306zM1066 216v188l14 21q21 7 42 -21l69 -139l-7 -35l-76 -35q-35 -7 -42 21z" />
<glyph unicode="'" horiz-adv-x="647" d="M170 813v631h307v-631h-307z" />
<glyph unicode="(" horiz-adv-x="758" d="M72 821q0 454 278 928h375q-58 -107 -101 -218t-72.5 -230.5t-43.5 -239.5t-14 -240q0 -119 14.5 -240t43 -239t71.5 -228.5t102 -218.5h-375q-85 142 -147.5 295.5t-96.5 311.5t-34 319z" />
<glyph unicode=")" horiz-adv-x="758" d="M35 -105q231 424 231 926q0 120 -15 246t-43 239t-74 231t-99 212h375q86 -145 147.5 -296t96 -310.5t34.5 -321.5t-34.5 -321.5t-96.5 -310t-147 -294.5h-375z" />
<glyph unicode="*" horiz-adv-x="1620" d="M87 640q-6 116 17 179l11 12l6 63l17 35l18 75l17 17q17 52 110 173l80 81q29 0 168 -162l-6 -34q-127 -81 -231 -214q-81 -103 -92 -230q35 -81 52 -93l115 -86q58 -6 93 11l23 41h17q11 -18 -29 -81l-63 -35q-75 -11 -197 52q-86 64 -126 196zM392 1454l29 34l29 81 q-12 64 23 81l17 -29q-23 -75 -5 -190l52 -58q17 12 86 -52l46 -75l6 -46l23 -35v-17l17 6l18 46l-6 46q-35 6 -23 144l-69 127v23l-41 41l-17 -6l-52 46l-29 81q-40 34 -34 46q-6 75 17 98l34 29h12l40 40q12 12 87 -23l-64 -132l87 -47v-109l29 104v46l-46 29l17 34l58 69 l29 -11q98 6 109 -12l17 -17l133 29q23 -12 46 0q23 -17 29 -133l-29 -63l-40 -41v-17l-46 -29l-81 -29l-29 -52q-40 -11 -104 -69q0 -75 29 -138l-6 -6l23 -133h12l23 145l35 5l109 58l69 81l-11 109l46 81l23 23l17 -29v-46q-17 6 -11 -46l17 6l23 -116l-5 -28l-93 -104 l-52 -104q18 -6 12 -35q0 -29 -23 -40l-87 -52l-11 -35v-23l29 -57q-12 -12 5 -70l-40 -51q-12 -35 0 -75l-29 -52l6 -139q23 -11 23 -63q-17 -35 -63 -46l-18 -41l6 -52q29 -23 17 -40h-5l5 -116l-17 -34l17 -41l-5 -5l5 -127l-23 17v-17l-29 6l12 265l-17 185l5 5l-11 58 q11 104 0 133l40 57l23 116q35 63 23 109q-23 6 -80 -40q11 -46 0 -98l-23 -104l-41 75l6 87l-52 98l-17 -52q-6 -35 17 -139q58 -52 52 -69l-12 -40l12 -127q29 -58 17 -87l12 -404h-6q12 -28 -6 -40q-17 12 -52 0q12 104 0 110l23 294l-17 63l-104 121l23 179l-5 162 l-35 46l-6 58l23 40v40l-75 70l6 28l-23 35q-92 58 -98 81q23 17 23 34v24q-40 69 -35 69zM588 456q-5 29 12 34q23 6 63 -40l-11 -121v-121l-35 69q0 110 -29 179zM848 392q0 29 23 35q35 11 46 -29l6 -69l-6 -104h18l5 -46l-17 -23v-18l-35 -75q0 266 -40 329zM1027 1096 l29 69l63 52l29 58l29 35h29l75 -64l80 -81l6 -23l12 -6q29 -63 40 -57q81 -179 98 -381q23 -23 -75 -179q-57 -63 -138 -86q-156 -6 -196 34v12q28 -17 98 -12l57 29l58 46l40 81q-11 139 -75 214l-121 155l-92 75l-12 23q-5 -11 -34 6z" />
<glyph unicode="+" horiz-adv-x="1456" d="M-100 1014v430h1656v-430h-1656z" />
<glyph unicode="," horiz-adv-x="758" d="M61 -233l127 630h435l-236 -630h-326z" />
<glyph unicode="-" horiz-adv-x="758" d="M92 377v360h574v-360h-574z" />
<glyph unicode="." horiz-adv-x="758" d="M156 0v397h446v-397h-446z" />
<glyph unicode="/" horiz-adv-x="758" d="M-123 -25l641 1493h363l-641 -1493h-363z" />
<glyph unicode="0" horiz-adv-x="1516" d="M47 721q0 162 46.5 298.5t137 238t223.5 156t306 54.5q163 0 294.5 -52t224 -151.5t141 -237t48.5 -306.5q0 -225 -81 -393.5t-241.5 -260.5t-385.5 -92q-224 0 -385.5 93.5t-244.5 263.5t-83 389zM584 721q0 -108 4 -176t19.5 -124t53 -90t99.5 -34q79 0 117 56.5 t46.5 140t8.5 227.5q0 150 -8.5 234t-46 138t-117.5 54q-82 0 -120.5 -54.5t-47 -138t-8.5 -233.5z" />
<glyph unicode="1" horiz-adv-x="1065" d="M-27 1081l539 363h440v-1444h-516v938l-317 -233z" />
<glyph unicode="2" horiz-adv-x="1212" d="M41 0v406q236 118 418 235q91 63 143.5 124t52.5 142q0 104 -77 152.5t-189 48.5q-177 0 -319 -61v376q114 21 226 33t226 12q275 0 462 -108t187 -365q0 -117 -52.5 -215t-135.5 -173.5t-171 -129.5t-226 -125v-4h585v-348h-1130z" />
<glyph unicode="3" horiz-adv-x="1212" d="M43 35v336q70 -24 169.5 -42t190.5 -18q109 0 169.5 27.5t60.5 101.5q0 82 -70.5 112t-163.5 30q-63 0 -176 -15v316q78 -4 115 -4q70 0 126 6t102 33t46 83q0 79 -61 112.5t-148 33.5t-179.5 -17t-166.5 -40v323q95 30 210 42.5t261 12.5q112 0 219 -22t199 -69.5 t147.5 -126.5t55.5 -187q0 -246 -275 -326v-4q295 -77 295 -334q0 -148 -91.5 -243t-234.5 -138t-304 -43q-123 0 -261.5 16.5t-234.5 43.5z" />
<glyph unicode="4" horiz-adv-x="1442" d="M33 276v308l777 860h347l1 -860h251v-308h-252v-276h-347v276h-777zM426 584h384v451z" />
<glyph unicode="5" horiz-adv-x="1212" d="M76 37v330q183 -43 301 -43q256 0 256 163q0 100 -83.5 138.5t-199.5 38.5q-117 0 -256 -33v813h1010v-336h-539v-223q55 6 160 6q120 0 222 -54t162 -155t60 -233q0 -176 -93 -281.5t-239 -149t-321 -43.5q-62 0 -141 7t-152.5 21t-146.5 34z" />
<glyph unicode="6" horiz-adv-x="1401" d="M33 690q0 248 98 424t272 265t398 89q254 0 436 -38v-334q-25 6 -72.5 18t-83 18t-88 10.5t-112.5 4.5q-140 0 -236 -68t-96 -221q51 42 130.5 65t190.5 23q130 0 244.5 -54.5t184 -159.5t69.5 -249q0 -169 -89.5 -283.5t-234 -169.5t-309.5 -55q-205 0 -366 91 t-248.5 254t-87.5 370zM549 471q0 -80 45.5 -133t126.5 -53q80 0 128 56t48 142t-47 137.5t-129 51.5q-84 0 -128 -53t-44 -148z" />
<glyph unicode="7" horiz-adv-x="1212" d="M25 1047v397h1163v-397l-514 -1047h-615l609 1047h-643z" />
<glyph unicode="8" horiz-adv-x="1401" d="M25 385q0 282 286 350v4q-89 30 -146.5 71.5t-86.5 106.5t-29 156q0 112 55.5 188.5t150 122t207.5 65t236 19.5q172 0 316.5 -36.5t235.5 -125t91 -233.5q0 -133 -65.5 -211t-192.5 -125v2v-4q132 -33 212.5 -120.5t80.5 -229.5q0 -114 -59.5 -194t-156.5 -127t-218 -68 t-244 -21q-167 0 -320 39t-253 130t-100 241zM541 463q0 -84 38 -137.5t119 -53.5q82 0 122 54.5t40 140.5q0 82 -40 133t-122 51t-119.5 -51.5t-37.5 -136.5zM545 1036q0 -75 40.5 -122t112.5 -48q69 0 108.5 47.5t39.5 118.5q0 69 -39.5 116.5t-108.5 47.5 q-71 0 -112 -46.5t-41 -113.5z" />
<glyph unicode="9" horiz-adv-x="1401" d="M33 961q0 128 52.5 224.5t142.5 159t202 93t236 30.5q155 0 285 -51.5t223 -147t143.5 -228t50.5 -287.5q0 -248 -98 -424.5t-271.5 -265.5t-398.5 -89q-249 0 -436 39v334q56 -15 104 -26t112 -18t140 -7q138 0 235 68t97 221q-110 -88 -322 -88q-129 0 -243 53.5 t-184 159.5t-70 250zM504 961q0 -85 48 -137t128 -52q85 0 128.5 53t43.5 148q0 81 -44 133.5t-128 52.5q-81 0 -128.5 -55.5t-47.5 -142.5z" />
<glyph unicode=":" horiz-adv-x="758" d="M156 0v397h446v-397h-446zM156 680v397h446v-397h-446z" />
<glyph unicode=";" horiz-adv-x="1360" d="M0 1014v430h1298v-430h-768v-166h496v-252h-496v-166h1230v-430h-1700v1014h-60z" />
<glyph unicode="&#x3c;" horiz-adv-x="0" d="M-1656 -82h1656v-430h-1656v430z" />
<glyph unicode="=" horiz-adv-x="1456" d="M-100 0v430h1656v-430h-1656z" />
<glyph unicode="&#x3e;" horiz-adv-x="0" d="M0 -82h1656v-430h-1656v430z" />
<glyph unicode="?" horiz-adv-x="1176" d="M84 1040v353q118 37 221.5 56t224.5 19q122 0 250 -28.5t220 -106.5t92 -213q0 -104 -48.5 -172.5t-147 -148.5t-142 -132t-43.5 -132h-410q8 143 47 218.5t89.5 113t94 71.5t43.5 86t-52 68t-150 16q-69 0 -150.5 -20.5t-138.5 -47.5zM283 0v385h446v-385h-446z" />
<glyph unicode="@" horiz-adv-x="5507" d="M-981 882h512l256 -624l134 624h470l-362 -1444h-470zM-741 1072h1376q312 52 318 320t-318 552q-180 160 76 142h238v430h-674q-276 0 -328 -268t296 -588q212 -172 -72 -158h-912v-430zM184 52l152 607l56 223l201 -624l207 624h510l-475 -1444h-470zM932 -560 l478 1442h716l481 -1442h-546l-91 260h-429l-91 -260h-518zM950 2086v430h1256v-430h-458v-1014h-470v1014h-328zM1564 -24h398l-191 572zM1968 1072l475 1444h717l483 -1444h-546l-91 260h-429l-91 -260h-518zM2600 1608h398l-191 572zM2628 -562v1444h940q174 -16 286 -92 t164 -204q40 -192 4 -296t-126 -174t-258 -110l108 -138h432v-430h-570l-458 477v-477h-522zM3150 266h364q29 0 63 21.5t36 108.5q-5 83 -40.5 109.5t-59.5 26.5h-363v-266zM3684 1072v1444h940q174 -16 286 -92t164 -204q40 -192 4 -296t-126 -174t-258 -110l108 -138h432 v-430h-570l-458 477v-477h-522zM4179 -132v-430h771q312 52 318 320t-318 552q-180 160 76 142h344l1 430h-781q-276 0 -328 -268t296 -588q212 -172 -72 -158h-307zM4190 1898h364q29 0 63 21.5t36 108.5q-5 83 -40.5 109.5t-59.5 26.5h-363v-266z" />
<glyph unicode="A" d="M-100 1014v430h1212l483 -1444h-546l-91 260h-429l-91 -260h-518l333 1014h-353zM548 552h398l-191 572z" />
<glyph unicode="B" horiz-adv-x="1628" d="M-240 1014v430h1285q237 -2 360.5 -82t149.5 -268q1 -16 1 -32q0 -121 -62 -194q-70 -82 -231 -135v-4q79 -10 146 -42.5t112.5 -77t70.5 -100.5t25 -110q0 -171 -87.5 -259t-225.5 -115q-128 -25 -306 -25h-27h-911v1014h-300zM558 292h321h12q76 0 133 36q62 39 62 96 q1 6 1 12q1 55 -51 87q-56 36 -157 36h-321v-267zM558 875h350q29 0 61 30.5t34 81.5q-4 59 -38.5 83t-57.5 24h-349v-219z" />
<glyph unicode="C" horiz-adv-x="1440" d="M10 739q0 174 63.5 307.5t176 222t227.5 142t339 65.5q232 -12 354 -56t246 -160l-284 -316q-72 60 -128 86t-184 34q-124 -16 -185 -51t-105 -95t-52 -180q8 -120 52 -180t105 -95t185 -51q128 8 184 34t128 86l284 -316q-124 -116 -246 -160t-354 -56 q-224 12 -339 65.5t-227.5 142t-176 222t-63.5 309.5z" />
<glyph unicode="D" horiz-adv-x="1662" d="M-240 1014v430h1152q173 0 305 -46t223 -124t151.5 -211t60.5 -346q-11 -197 -66 -335t-146 -218q-90 -80 -222 -124q-121 -40 -297 -40h-33h-828v1014h-300zM542 360h275q93 0 150 39.5t93 101t46 221.5q-3 146 -40.5 215.5t-96.5 109t-154 39.5h-273v-726z" />
<glyph unicode="E" horiz-adv-x="1360" d="M-240 1014v430h1538v-430h-768v-166h496v-252h-496v-166h890v-430h-1360v1014h-300z" />
<glyph unicode="F" horiz-adv-x="1328" d="M-240 1014v430h1538v-430h-768v-166h496v-252h-496v-596h-470v1014h-300z" />
<glyph unicode="G" horiz-adv-x="1440" d="M10 743q0 170 63.5 303.5t176 222t227.5 142t339 65.5q232 -12 354 -56t246 -160l-284 -316q-72 60 -128 86t-184 34q-124 -16 -182 -54t-102 -98t-56 -184q12 -124 56 -174t110 -82t142 -40q43 -5 107 -5q47 0 106 3v292h439v-722h-621q-228 0 -412.5 83.5t-290.5 250.5 t-106 409z" />
<glyph unicode="H" horiz-adv-x="1398" d="M-260 1014v430h770v-498h378v498h470v-1444h-470v520h-378v-520h-470v1014h-300z" />
<glyph unicode="I" horiz-adv-x="1398" d="M40 0v1444h470v-498h378v498h870v-430h-400v-1014h-470v520h-378v-520h-470z" />
<glyph unicode="J" horiz-adv-x="877" d="M0 -82h34q65 0 107 6q53 8 90 26t60 51t35 123v1320h720v-430h-250v-1022q-6 -166 -36 -234t-107 -128t-193 -91t-210 -41t-250 -10v430z" />
<glyph unicode="K" horiz-adv-x="1404" d="M60 0v1444h470v-470l330 470h470l-538 -722l240 -292h772v-430h-910l-364 430v-430h-470z" />
<glyph unicode="L" horiz-adv-x="1312" d="M-240 1014v430h770v-1014h782v-430h-1252v1014h-300z" />
<glyph unicode="M" horiz-adv-x="1650" d="M-260 1014v430h770l316 -600l314 600h470v-1444h-470v600l-302 -600h-26l-302 600v-600h-470v1014h-300z" />
<glyph unicode="N" horiz-adv-x="1430" d="M60 0v1444h470l430 -540v540h870v-430h-400v-1014h-470l-430 540v-540h-470z" />
<glyph unicode="O" horiz-adv-x="1430" d="M-240 1014v430h770l430 -540v540h470v-1444h-470l-430 540v-540h-470v1014h-300z" />
<glyph unicode="P" horiz-adv-x="1501" d="M-240 1014v430h1240q174 -16 288 -90t162 -206q37 -135 37 -213q0 -14 -1 -27q-8 -80 -32 -150t-132 -162t-288 -119h-452v-477h-522v1014h-300zM582 818h364q29 0 63 21.5t36 108.5q-5 83 -40.5 109.5t-59.5 26.5h-363v-266z" />
<glyph unicode="Q" horiz-adv-x="1650" d="M40 0v1444h470l314 -600l316 600h870v-430h-400v-1014h-470v600l-302 -600h-26l-302 600v-600h-470z" />
<glyph unicode="R" horiz-adv-x="1550" d="M60 0v1444h940q174 -16 286 -92t164 -204q21 -101 21 -178q0 -69 -17 -118q-36 -104 -126 -174t-258 -110l108 -138h772v-430h-910l-458 477v-477h-522zM582 818h364q29 0 63 21.5t36 108.5q-5 83 -40.5 109.5t-59.5 26.5h-363v-266z" />
<glyph unicode="S" horiz-adv-x="1135" d="M-492 0v430h796h25q137 0 137 48q0 39 -90 110q-303 278 -303 517q0 36 7 71q52 268 328 268h890v-430h-454h-25q-126 0 -126 -45q0 -35 75 -97q318 -279 318 -542v-10q-6 -268 -318 -320h-1260z" />
<glyph unicode="T" horiz-adv-x="1070" d="M-158 1014v430h1386v-430h-458v-1014h-470v1014h-458z" />
<glyph unicode="U" horiz-adv-x="1404" d="M60 0v372v1072h470v-470l330 470h470l-538 -722l460 -718q58 -86 141 -86h11v-430h-5q-246 0 -347 180l-522 762v-430h-470z" />
<glyph unicode="V" horiz-adv-x="1550" d="M60 0v372v1072h940q174 -16 279 -86t143 -135t54 -159q5 -28 5 -58q0 -69 -26 -147q-37 -111 -127 -181t-258 -110l372 -608q30 -44 86 -44q11 0 22 2v-430h-35q-257 0 -339 112l-594 877v-477h-522zM582 818h364q29 0 63 21.5t36 108.5q-5 83 -40.5 109.5t-59.5 26.5 h-363v-266z" />
<glyph unicode="W" horiz-adv-x="1800" d="M-248 1014v430h662l198 -624l172 624h432l201 -624l134 624h465l-357 -1444h-470l-183 612l-152 -612h-470l-332 1014h-300z" />
<glyph unicode="X" horiz-adv-x="1550" d="M0 1014v430h1000q174 -16 286 -92t164 -204q21 -101 21 -178q0 -69 -17 -118q-36 -104 -126 -174t-258 -110l108 -138h432v-430h-570l-458 477v-477h-522v864h886q29 0 63 13t36 60q-5 47 -40.5 61.5t-59.5 14.5l-381 1h-564z" />
<glyph unicode="Y" horiz-adv-x="1472" d="M-136 1014v430h576l298 -446l294 446h570l-630 -914v-530h-472v530l-336 484h-300z" />
<glyph unicode="Z" d="M-101 0l483 1444h1212v-430h-353l333 -1014h-518l-91 260h-429l-91 -260h-546zM548 552h398l-207 572z" />
<glyph unicode="[" horiz-adv-x="1404" d="M-240 1014v430h770v-470l330 470h470l-538 -722l240 -292h772v-430h-910l-364 430v-430h-470v1014h-300z" />
<glyph unicode="\" horiz-adv-x="56" d="M-296 0v430h650v-430h-650z" />
<glyph unicode="]" horiz-adv-x="1800" d="M-140 1444h470l198 -624l172 624h432l201 -624l134 624h763v-430h-400l-255 -1014h-470l-183 612l-152 -612h-470z" />
<glyph unicode="^" horiz-adv-x="2059" d="M0 740v47h361q184 -450 675 -432q213 24 379 172q118 118 165 260h-6h367q-71 -343 -331 -562q-266 -207 -562 -225q-142 -6 -255 12q-621 136 -793 728zM0 1202v47q107 385 450 604q142 77 266 112q142 36 243 24q337 18 651 -225q249 -219 331 -539v-23h-367 q-53 201 -301 361q-243 130 -509 47l-119 -53q-195 -119 -284 -355h-361zM657 947q-12 284 266 355q284 12 356 -266q11 -284 -267 -355q-284 -12 -355 266z" />
<glyph unicode="_" horiz-adv-x="1454" d="M-290 1014v430h770v-854q-4 -142 67 -202t177 -62q132 4 194 61t56 203v854h470v-848q0 -182 -55.5 -295t-158 -185t-240 -105.5t-270.5 -36.5q-160 4 -290.5 44t-217 112t-143 179.5t-59.5 287.5v417h-300z" />
<glyph unicode="`" horiz-adv-x="1630" d="M-242 1014v430h734l332 -1109l328 1109h551l-508 -1444h-767l-371 1014h-299z" />
<glyph unicode="a" d="M-80 0l475 1444h717l483 -1444h-546l-91 260h-429l-91 -260h-518zM548 552h398l-191 572z" />
<glyph unicode="b" horiz-adv-x="1628" d="M60 0v1444h985q237 -2 360.5 -82t149.5 -268q1 -16 1 -32q0 -121 -62 -194q-70 -82 -231 -135v-4q79 -10 146 -42.5t112.5 -77t70.5 -100.5t25 -110q0 -171 -87.5 -259t-225.5 -115q-128 -25 -306 -25h-27h-911zM558 292h321h12q76 0 133 36q62 39 62 96q1 6 1 12 q1 55 -51 87q-56 36 -157 36h-321v-267zM558 875h350q29 0 61 30.5t34 81.5q-4 59 -38.5 83t-57.5 24h-349v-219z" />
<glyph unicode="c" horiz-adv-x="1484" d="M10 743q0 170 65.5 303.5t181.5 222t266.5 132t320.5 43.5h396h244v-430h-452q-152 0 -225 -9t-130 -30t-101 -73t-51 -184q5 -128 51 -183t112 -73t136 -25t208 -7h452v-430h-640q-235 0 -425 83.5t-299.5 250.5t-109.5 409z" />
<glyph unicode="d" horiz-adv-x="1662" d="M60 0v1444h852q173 0 305 -46t223 -124t151.5 -211t60.5 -346q-11 -197 -66 -335t-146 -218q-90 -80 -222 -124q-121 -40 -297 -40h-33h-828zM542 360h275q93 0 150 39.5t93 101t46 221.5q-3 146 -40.5 215.5t-96.5 109t-154 39.5h-273v-726z" />
<glyph unicode="e" horiz-adv-x="1360" d="M60 0v1444h1238v-430h-768v-166h496v-252h-496v-166h890v-430h-1360z" />
<glyph unicode="f" horiz-adv-x="1328" d="M60 0v1444h1238v-430h-768v-166h496v-252h-496v-596h-470z" />
<glyph unicode="g" horiz-adv-x="1484" d="M10 743q0 170 65.5 303.5t181.5 222t266.5 132t320.5 43.5h396h244v-430h-452q-152 0 -225 -9t-130 -30t-101 -73t-51 -184q5 -128 51 -183t112 -73t136 -25t208 -7v292h452v-722h-640q-235 0 -425 83.5t-299.5 250.5t-109.5 409z" />
<glyph unicode="h" horiz-adv-x="1398" d="M40 0v1444h470v-498h378v498h470v-1444h-470v520h-378v-520h-470z" />
<glyph unicode="i" horiz-adv-x="550" d="M40 0v1444h470v-1444h-470z" />
<glyph unicode="j" horiz-adv-x="879" d="M8 0v430q39 -10 83 -10t93 10q78 18 108 42t42 114v858h544v-430h-74v-560q-6 -166 -48 -228t-123 -121t-221 -91q-136 -10 -221 -11t-183 -3z" />
<glyph unicode="k" horiz-adv-x="1404" d="M60 0v1444h470v-470l330 470h470l-538 -722l240 -292h432v-430h-570l-364 430v-430h-470z" />
<glyph unicode="l" horiz-adv-x="1312" d="M60 0v1444h470v-1014h782v-430h-1252z" />
<glyph unicode="m" horiz-adv-x="1650" d="M40 0v1444h470l316 -600l314 600h470v-1444h-470v600l-302 -600h-26l-302 600v-600h-470z" />
<glyph unicode="n" horiz-adv-x="1430" d="M60 0v1444h470l430 -540v540h470v-1444h-470l-430 540v-540h-470z" />
<glyph unicode="o" horiz-adv-x="1677" d="M10 714q0 181 55 318.5t161 231.5t260 142.5t349 48.5q259 0 447 -85.5t287 -252t99 -403.5t-99 -404t-286.5 -251t-447.5 -84t-446.5 84.5t-282.5 250t-96 404.5zM523 710q0 -139 62.5 -242t246.5 -103q142 0 212.5 54t88 123.5t23.5 167.5q-6 139 -67 242.5t-257 103.5 q-309 0 -309 -346z" />
<glyph unicode="p" horiz-adv-x="1501" d="M60 0v1444h940q174 -16 288 -90t162 -206q37 -135 37 -213q0 -15 -1 -27q-8 -80 -32 -150t-132 -162t-288 -119h-452v-477h-522zM582 818h364q29 0 63 21.5t36 108.5q-5 83 -40.5 109.5t-59.5 26.5h-363v-266z" />
<glyph unicode="q" horiz-adv-x="1639" d="M10 721q0 182 53 312.5t155 226.5t246 144t368 60q228 -12 402 -76t284 -212q99 -133 99 -384q0 -27 -1 -56q-24 -132 -94 -230q-23 -32 -23 -51q0 -29 52 -29q19 0 46 4h42v-430l-859 -25q-185 5 -326.5 53t-241.5 143.5t-151 233.5t-51 316zM527 702q0 -139 62.5 -242 t246.5 -103v71q60 -6 107 -6q174 0 190 80q21 101 27 200q-6 137 -67 240.5t-257 103.5q-309 0 -309 -344z" />
<glyph unicode="r" horiz-adv-x="1550" d="M60 0v1444h940q174 -16 286 -92t164 -204q21 -101 21 -178q0 -69 -17 -118q-36 -104 -126 -174t-258 -110l108 -138h432v-430h-570l-458 477v-477h-522zM582 818h364q29 0 63 21.5t36 108.5q-5 83 -40.5 109.5t-59.5 26.5h-363v-266z" />
<glyph unicode="s" horiz-adv-x="1135" d="M0 0v430h304h25q137 0 137 48q0 39 -90 110q-303 278 -303 517q0 36 7 71q52 268 328 268h788v-430h-352h-25q-126 0 -126 -45q0 -35 75 -97q318 -279 318 -542v-10q-6 -268 -318 -320h-768z" />
<glyph unicode="t" horiz-adv-x="1366" d="M-10 1014v430h1386v-430h-458v-1014h-470v1014h-458z" />
<glyph unicode="u" horiz-adv-x="1454" d="M10 596v848h470v-854q-1 -13 -1 -25q0 -126 57 -178q62 -57 194 -61q106 2 177 62q67 57 67 187v15v854h470v-847q-3 -180 -59.5 -287.5t-143 -179.5t-217 -112t-290.5 -44q-133 3 -270.5 36.5t-240 105.5t-158 185t-55.5 295z" />
<glyph unicode="v" horiz-adv-x="1630" d="M-80 1444h551l328 -1109l332 1109h579l-515 -1444h-767z" />
<glyph unicode="w" horiz-adv-x="1800" d="M-140 1444h470l198 -624l172 624h432l201 -624l134 624h470l-362 -1444h-470l-183 612l-152 -612h-470z" />
<glyph unicode="x" horiz-adv-x="1472" d="M-130 0l530 722l-530 722h570l294 -446l298 446h570l-530 -722l530 -722h-570l-298 446l-294 -446h-570z" />
<glyph unicode="y" horiz-adv-x="1472" d="M-130 1444h570l294 -446l298 446h570l-630 -914v-530h-472v530z" />
<glyph unicode="z" horiz-adv-x="1400" d="M40 0v430l699 584h-699v430h1320v-430l-699 -584h699v-430h-1320z" />
<glyph unicode="{" horiz-adv-x="1675" d="M90 0v1746h404v-1342h1111v-404h-1515zM193 180l31 -35l58 -4q20 13 45 64q33 13 39 0v-19l-24 -6l-2 -39q39 -6 58 45q4 42 -26 64l-57 1q-58 -90 -84 -68v29l33 7l-1 38l-44 -2l-26 -30v-45zM193 1220q-7 -45 38 -71l165 2l-1 43h-157q-13 32 6 39h154v38h-173l-13 -6z M194 877l5 -34l21 -33l56 -1l1 40l-45 6l-1 31h135v-26l-38 -12l-1 -39h52l19 32q15 83 -58 96q-138 17 -146 -60zM199 462l38 1q63 24 155 38v58l-154 38h-39v-39l38 -8l2 -35l-39 -12zM199 1464h39l1 58l157 2l1 42h-192l-6 -12v-90zM270 544l1 -24l69 10zM520 71h51 q13 122 97 96q13 -84 -13 -103v7h58q-13 32 6 263l-45 -26l-6 -38l-122 -174l-26 -19v-6zM628 196l4 -11l37 -1l7 6l20 85l-9 2zM713 1695l6 13l13 -13l32 -13l6 -45l142 -173h19q-7 -45 38 -39l33 39q6 -19 89 -13l20 71l-13 38l45 90h38l64 -51v-71l-51 -90v-13l39 -6 l45 6l19 -19l32 26l71 13l57 32l135 102l-13 -45l-45 -57h-25q-26 -39 -58 -52l-128 -25l-71 -45q-26 -65 58 -386l6 -276l-6 -57q19 -13 19 -154l-6 -45l-13 -7h-20l-6 32l6 109l-12 7v109l-26 13q26 25 26 51q0 135 -33 180l-102 -13q-129 13 -180 0l-160 -481l-20 -20 h-19l-13 52l39 51l32 64l6 97l19 32l20 77l32 38l25 96l-12 7l-13 160q25 97 32 251q19 13 13 58l-20 19l-38 6q-103 129 -135 135q13 19 -32 71l6 45zM764 1875q32 0 32 -13l39 -90h32l25 26l32 6v32l-38 90l13 32l32 -38q0 -65 32 -110q64 -6 103 13l19 45q-26 84 -6 97 l19 -13v-122l64 -7v-13h51l45 103l13 -6l-32 -109l45 -13l6 -13h39l19 38h26q0 -38 -26 -44q-19 -39 19 -58l84 -39l83 77h20l-39 -64q-45 -6 -45 -38l39 -33q6 -38 -20 -45q-109 58 -89 90l-52 20q-45 57 -96 90l-19 -7l-26 13h-58v13l-64 -13h-173l-65 -19 q-12 -32 -51 -20l7 52q-45 70 -39 90zM884 79h32l34 72l36 48l9 -7l13 -4l12 17l1 19l-30 2l-14 -22l-30 -37l-2 8l11 31l1 20h-29l-23 -22l3 -10l16 14l8 -5l-10 -34zM1156 71l38 6l39 39v12l-45 -25l38 102h39v20h-32l12 38h-19l-13 -38l-38 -7v-13h19l-26 -83l-12 -13 v-38zM1274 1936v29l19 -3l5 -9zM1378 1829l12 33l14 1l36 38h18l4 -18l-30 -32l-17 -2l-18 -19zM1387 103l13 -26h38l32 45q13 6 -25 71l6 19q32 6 38 -19l7 6l-7 32l-44 -6l-20 -26v-45q32 -38 20 -58q-39 -6 -52 13zM1503 475v13h38v-12l-12 -2l-1 -34h-13l2 34zM1548 439 v49h12l15 -18l17 18h12v-49h-12v16l-16 -16l-16 16l-1 -16h-11z" />
<glyph unicode="|" horiz-adv-x="56" d="M-296 1014v430h650v-430h-650z" />
<glyph unicode="}" horiz-adv-x="2043" d="M12 916q-6 181 17 286q175 671 846 788q137 20 269 0q239 -35 431 -164l175 -151q117 -135 187 -298q21 -59 41 -128q117 -467 -193 -887q-303 -326 -694 -362q-181 -6 -286 18q-700 180 -793 898zM58 1062l2 -148v-24l8 -54l2 -30l18 -65l11 -6v-29l82 -181l117 -152 l58 -58l128 -99q216 -128 455 -152l199 6q99 18 245 64l11 6l53 23l123 76l163 146l117 163q99 222 110 380q18 210 -64 426l-99 181q-280 385 -753 408l-157 -6l-204 -47q-286 -99 -469 -366q-138 -205 -156 -462zM117 916q-18 140 64 163q82 18 163 -40l41 -94l-6 -23 l-181 -18h-75zM163 1307l76 17l187 -5l12 -6q-6 -24 11 -29v-30h-58l-18 -52l30 -53l-35 -17q-30 -6 -35 12zM181 969l117 5q11 18 -53 47q-41 0 -64 -29v-23zM251 724q6 40 35 52h47l23 -23q0 -76 -29 -76q-64 -12 -76 47zM292 1511q41 82 87 94l59 -18l40 -64l88 -12 l12 -29v-41l-117 18v-12l70 -41l-23 -47l-41 12l-76 64q-35 12 -99 76zM298 1249l17 -12l12 12l-6 17l-23 -6v-11zM362 449q35 134 99 146q76 23 128 -47l-41 -52h-23q-12 23 -52 23q-30 -23 -41 -52q6 -64 17 -64l-46 -41q-35 -6 -41 87zM373 1529l53 -47h6l-12 41l-17 12z M531 1721v24l23 17l35 -6l24 -46l17 -12l-6 105l65 -23l5 -94q76 -23 88 -52l-6 -64l-87 46h-12l6 -23h11l24 -53l-41 -29l-64 76zM548 268q0 146 123 193q29 6 82 -18l23 -29v-81q-41 -111 -128 -135q-88 12 -100 70zM613 280q17 0 11 -17q53 0 88 87q6 35 -18 53 q-17 5 -58 -41l-23 -53v-29zM706 1021v123l35 128l35 64l70 76q64 53 158 82l-6 70l46 -12l47 -47l23 -46l-5 -24q46 12 52 -70h12l128 -175l53 -105q11 -23 -53 -64h-17q-35 41 -59 35l29 -64q-23 -29 -52 -35l-47 41q0 99 -52 128l-47 23l-35 6l-23 -35v-99l58 -70l93 -47 l12 -11l12 -82q-24 -146 -53 -152h-303q-88 123 -111 362zM747 1068l17 -140h12l23 -88l47 -93l152 -6l70 6l-105 12l-82 -6q-35 -6 -99 175q-23 64 -23 134l5 122l-11 -17l-6 -70q12 -12 0 -29zM762 1194l7 -6l20 51l22 45l17 29l19 32l-31 -33l-20 -31l-15 -30l-11 -29z M789 475q34 91 45 85l278 -1l26 -22l11 -47l12 -12l-7 -3h-365zM799 158l35 110l12 12q-6 23 35 93v24l12 6q41 -65 35 -105l23 -18l47 99q23 6 23 -17q35 -146 23 -152l12 -23v-53l-35 -17l-23 6l-18 105l-52 -88l-47 88l-29 -100zM804 624l13 -10l315 2l6 5l-6 16l-18 10 l-291 -1l-11 -11zM807 597l14 -26l305 1l15 22l-12 4l-18 2h-285zM881 1721q-23 35 47 70q41 0 58 -29q18 -52 -41 -76q-58 6 -64 35zM937 1246l2 4l-2 4l1 7l1 -24l29 -25l47 -30l10 -10h19l-3 14l-24 8l-41 29l-23 25l-15 17l-1 -8v-11zM1066 1185l15 -5v11l-14 3z M1079 1599q18 140 59 256l46 -5l12 -12q-17 -35 -17 -88l29 -5h23l18 87l52 -6l6 -11l-58 -251l-59 11q6 70 18 70q17 41 -35 41l-18 -6l-17 -87zM1114 350q-11 47 24 47h35l52 -234v-23l-46 -12q-24 18 -65 222zM1129 1308l9 -21l14 -6l13 18l-15 9h-21zM1278 350v64 q23 41 52 59q29 17 59 -41l-35 -47q-12 -47 52 -76l59 6l23 -29l-6 -41q-152 -17 -204 105zM1288 1107l1 -25l27 24zM1348 1535q11 122 117 175q99 17 128 -59q12 -58 -47 -134q-58 -64 -99 -64q-88 6 -99 82zM1418 1529l12 -6l46 12l47 64v41l-12 5q-41 12 -93 -75v-41z M1465 531l23 76l35 -6q0 -18 23 -18l-17 -52l76 -6l35 -23l23 -76l-23 -64q-18 -6 -59 35l18 46l-29 12q-88 -12 -105 76zM1511 1342q-6 29 12 35l198 123l47 -53l12 -35q17 -82 -111 -88l-35 -75l-70 5l6 30l58 75v6l-82 -52zM1605 1144l46 29h24v-18l17 -17h18l35 58 q99 47 145 -52q0 -30 -46 -35l-41 35l-41 -59q-105 -41 -157 59zM1616 869l12 94l12 6h58l198 -30l-6 -99l-52 6l-6 -6l-6 47l-35 12l-6 -35l-46 -6l-18 6v40h-35l-6 -46zM1651 1377h35l29 23v18l-64 -35v-6zM1657 683q0 70 53 70q64 -18 52 -41q12 -23 -29 -64 q-53 -18 -76 35z" />
<glyph unicode="~" horiz-adv-x="1472" d="M-130 1444h570l294 -446l298 446h676v-430h-400l-336 -484v-530h-472v530z" />
<glyph unicode="&#xad;" horiz-adv-x="758" d="M92 377v360h574v-360h-574z" />
<glyph unicode="&#xb6;" horiz-adv-x="2048" d="M-124 61v140q477 28 477 -56q28 -140 -56 -168l56 -28q56 224 169 252q280 0 308 -112q56 -225 -140 -309h-168l-141 141q-28 -169 -393 -141l-28 281h-84zM101 33h112v56h-112v-56zM101 -51v-85l140 28l-28 57h-112zM127.5 252.5q17.5 -13.5 52 -8.5t71 27t89.5 67 q-147 -30 -188.5 -51t-24 -34.5zM135 227q-75 54 182 173l313 25l-45 49l-20 50l40 59l5 25l-141 64l60 644v164q-40 10 -60 69l86 807l-66 30l-25 84l35 45l379 39l20 -64l-167 -119l-106 -10l-70 -738q80 208 191.5 285t260.5 97t303 2.5t234.5 -69.5t136 -166t71.5 -233 l20 -40l5 -183l81 -649l-283 -148l5 -25l30 -25q316 79 334 -10l122 -19q69 -80 -1 -114l-1445 -40zM224 -287h393v-140l-196 -28h140v-84h-112l-56 -169l-113 28l-56 253v140zM486 682l581 -223q-37 133 -56.5 208t-45 163t-69.5 175t-137 118q-98 -7 -135 -53 t-69.5 -126.5t-68.5 -261.5zM522 61q-29 -140 56 -197l112 28l-28 197zM524 1415l13 -96q63 2 132.5 -1.5t129 -34.5t113.5 -88t77 -128t78 -528l23 -13l18 810l-230 40zM524 1777l71 587h-18zM544 1395l335 -34l213 -42l-15 -728l-21 191q-22 210 -47 289t-80.5 138.5 t-111 88t-116.5 32.5t-144 8zM544 1499l16 -24l121 17l131 12l179 3l298 -12l195 -20l204 -3l66 -27l-5 67q-83 32 -177 46t-233 23t-276 6t-251 -8t-257 -65zM555 1497l27 22q140 37 314 42t262.5 5t205.5 -5t209.5 -19.5t170.5 -44.5l5 -37l-83 20l-270 19l-197 10l-240 5 l-172 -2l-142 -13l-85 -14zM557 1428l53 -5h10l8 37l-71 5v-37zM645 -567q-56 140 140 280q281 0 309 -112q56 -225 -140 -309q-281 0 -309 141zM729 1400h35l15 90l-30 2zM785 -427q-28 -140 56 -197l113 28l-28 197zM858 201q365 28 393 -56q28 -140 -56 -168 q84 28 84 -85l112 309h197l112 -337v-84l-281 84l-56 -84l-140 56q-112 -84 -365 -56v421zM883 1393l96 -20l20 114l-81 5zM954 1933q151 -17 233 -21t165.5 -9t100 4t7.5 26t-43 32t-108.5 22.5t-135 7.5t-110 -7.5t-109.5 -54.5zM998 33h113v56h-113v-56zM998 -51v-85 l141 28l-28 57h-113zM1126 -283q112 56 224 -112q0 112 57 112h448v-140h-112v-140h253q-197 196 -56 280h280v-112l-140 -56q168 -169 0 -253h-449l-28 253l-112 28l-28 -281h-85l-140 141v-141h-112v421zM1302 1309l10 -20l-5 -827l81 -5l5 891h15v124l-106 10v-173z M1413 464l23 3q53 498 94.5 599.5t69.5 133.5t74.5 49.5t72.5 17.5v104l-331 -37zM1428 536l4 779l292 41l10 -72q-66 -20 -101 -35t-60.5 -54.5t-58.5 -121t-63 -324.5zM1443 1883q16 -69 52.5 -87.5t60.5 -23.5t40.5 13.5t2.5 43.5t-40.5 43.5t-48 21t-67.5 -10.5z M1447 33v-84h85l-29 140zM1456 472l311 163v13q-39 280 -72 373t-71 79q-62 -39 -83.5 -86t-30 -93t-29.5 -189l-15 -164zM1472.5 1863q-6.5 17 20.5 25q35 -1 61 -19.5t38.5 -41.5t3.5 -30.5t-22 -3.5t-33 9t-41 24.5t-27.5 36.5zM1537 1356l40 2l36 97l-56 7zM1618 1361 l73 -3l33 45l7 44l-80 15zM1739 346.5q-45 -11.5 78.5 -2.5t259.5 26q-20 50 -60.5 47.5t-74.5 -22.5t-96 -28.5t-107 -20z" />
<glyph unicode="&#xbf;" horiz-adv-x="1176" d="M84 348q0 104 48.5 172.5t147 148.5t142 132t43.5 132h410q-8 -143 -47 -218.5t-89.5 -113t-94 -71.5t-43.5 -86t52 -68t150 -16q69 0 150.5 20.5t138.5 47.5v-353q-118 -37 -221.5 -56t-224.5 -19q-122 0 -250 28.5t-220 106.5t-92 213zM447 1083v385h446v-385h-446z " />
<glyph unicode="&#xc0;" d="M-80 0l475 1444h717l483 -1444h-546l-91 260h-429l-91 -260h-518zM203 1796h462l176 -318zM548 552h398l-191 572z" />
<glyph unicode="&#xc1;" d="M-80 0l475 1444h717l483 -1444h-546l-91 260h-429l-91 -260h-518zM548 552h398l-191 572zM673 1478l176 318h462z" />
<glyph unicode="&#xc2;" d="M-80 0l475 1444h717l483 -1444h-546l-91 260h-429l-91 -260h-518zM473 1475v59l278 283l279 -283v-62l-277 174zM548 552h398l-191 572z" />
<glyph unicode="&#xc3;" d="M-80 0l475 1444h717l483 -1444h-546l-91 260h-429l-91 -260h-518zM407 1648q147 270 322 79t323 -51l76 -40q-240 -232 -408 -50t-253 15zM548 552h398l-191 572z" />
<glyph unicode="&#xc4;" d="M-80 0l475 1444h717l483 -1444h-546l-91 260h-429l-91 -260h-518zM443 1640q0 56 33 90t87 34q51 0 83.5 -33.5t32.5 -83.5q-5 -61 -38.5 -92t-83.5 -31q-48 0 -81 33t-33 83zM548 552h398l-191 572zM821 1640q0 56 33 90t87 34q51 0 83.5 -33.5t32.5 -83.5 q-5 -61 -38.5 -92t-83.5 -31q-48 0 -81 33t-33 83z" />
<glyph unicode="&#xc5;" d="M-80 0l475 1444h717l483 -1444h-546l-91 260h-429l-91 -260h-518zM548 552h398l-191 572zM557 1642q0 91 55 146.5t142 55.5q83 0 137.5 -55t54.5 -136q0 -82 -59.5 -140.5t-141.5 -58.5q-79 0 -133.5 53t-54.5 135zM633 1644q0 -50 33 -83t81 -33q50 0 83.5 31t38.5 92 q0 50 -32.5 83.5t-83.5 33.5q-54 0 -87 -34t-33 -90z" />
<glyph unicode="&#xc6;" horiz-adv-x="2062" d="M-80 0l475 1444h1605v-430h-768v-166h496v-252h-496v-166h890v-430h-1366v260h-227l-91 -260h-518zM548 552h208v570z" />
<glyph unicode="&#xc7;" horiz-adv-x="1440" d="M10 739q0 174 63.5 307.5t176 222t227.5 142t339 65.5q232 -12 354 -56t246 -160l-284 -316q-72 60 -128 86t-184 34q-124 -16 -185 -51t-105 -95t-52 -180q8 -120 52 -180t105 -95t185 -51q128 8 184 34t128 86l284 -316q-124 -116 -246 -160t-272 -55v-113 q107 -20 159 -68t52 -116q0 -92 -101.5 -160.5t-261.5 -68.5q-63 0 -159 8l15 87q42 -12 100 -14q100 0 135.5 31t35.5 85q0 38 -39 66t-97 28q-17 0 -44 -3l-1 241q-100 8 -215 61.5t-227.5 142t-176 222t-63.5 309.5z" />
<glyph unicode="&#xc8;" horiz-adv-x="1360" d="M60 0v1444h1238v-430h-768v-166h496v-252h-496v-166h890v-430h-1360zM203 1796h462l176 -318z" />
<glyph unicode="&#xc9;" horiz-adv-x="1360" d="M60 0v1444h1238v-430h-768v-166h496v-252h-496v-166h890v-430h-1360zM673 1478l176 318h462z" />
<glyph unicode="&#xca;" horiz-adv-x="1360" d="M60 0v1444h1238v-430h-768v-166h496v-252h-496v-166h890v-430h-1360zM473 1475v59l278 283l279 -283v-62l-277 174z" />
<glyph unicode="&#xcb;" horiz-adv-x="1360" d="M60 0v1444h1238v-430h-768v-166h496v-252h-496v-166h890v-430h-1360zM443 1640q0 56 33 90t87 34q51 0 83.5 -33.5t32.5 -83.5q-5 -61 -38.5 -92t-83.5 -31q-48 0 -81 33t-33 83zM821 1640q0 56 33 90t87 34q51 0 83.5 -33.5t32.5 -83.5q-5 -61 -38.5 -92t-83.5 -31 q-48 0 -81 33t-33 83z" />
<glyph unicode="&#xcc;" horiz-adv-x="550" d="M26 1796h371l113 -316zM40 0v1444h470v-1444h-470z" />
<glyph unicode="&#xcd;" horiz-adv-x="550" d="M41 0v1444h467v-1444h-467zM41 1480l113 316h368z" />
<glyph unicode="&#xce;" horiz-adv-x="550" d="M40 0v1444h470v-1444h-470zM45 1481v59l228 283l229 -283v-62l-228 174z" />
<glyph unicode="&#xcf;" horiz-adv-x="550" d="M3 1640q0 56 33 90t87 34q51 0 83.5 -33.5t32.5 -83.5q-5 -61 -38.5 -92t-83.5 -31q-48 0 -81 33t-33 83zM40 0v1444h470v-1444h-470zM315 1640q0 56 33 90t87 34q51 0 83.5 -33.5t32.5 -83.5q-5 -61 -38.5 -92t-83.5 -31q-48 0 -81 33t-33 83z" />
<glyph unicode="&#xd0;" horiz-adv-x="1804" d="M-42 542v252h254v650h852q173 0 305 -46t223 -124t151.5 -211t60.5 -346q-11 -197 -66 -335t-146 -218t-222.5 -124t-329.5 -40h-828v542h-254zM694 360h275q93 0 150 39.5t93 101t46 221.5q-3 146 -40.5 215.5t-96.5 109t-154 39.5h-273v-290h280v-254h-280v-182z" />
<glyph unicode="&#xd1;" horiz-adv-x="1430" d="M60 0v1444h470l430 -540v540h470v-1444h-470l-430 540v-540h-470zM391 1648q147 270 322 79t323 -51l76 -40q-240 -232 -408 -50t-253 15z" />
<glyph unicode="&#xd2;" horiz-adv-x="1677" d="M10 714q0 181 55 318.5t161 231.5t260 142.5t349 48.5q259 0 447 -85.5t287 -252t99 -403.5t-99 -404t-286.5 -251t-447.5 -84t-446.5 84.5t-282.5 250t-96 404.5zM203 1796h462l176 -318zM523 710q0 -139 62.5 -242t246.5 -103q142 0 212.5 54t88 123.5t23.5 167.5 q-6 139 -67 242.5t-257 103.5q-309 0 -309 -346z" />
<glyph unicode="&#xd3;" horiz-adv-x="1677" d="M10 714q0 181 55 318.5t161 231.5t260 142.5t349 48.5q259 0 447 -85.5t287 -252t99 -403.5t-99 -404t-286.5 -251t-447.5 -84t-446.5 84.5t-282.5 250t-96 404.5zM523 710q0 -139 62.5 -242t246.5 -103q142 0 212.5 54t88 123.5t23.5 167.5q-6 139 -67 242.5t-257 103.5 q-309 0 -309 -346zM673 1478l176 318h462z" />
<glyph unicode="&#xd4;" horiz-adv-x="1677" d="M10 714q0 181 55 318.5t161 231.5t260 142.5t349 48.5q259 0 447 -85.5t287 -252t99 -403.5t-99 -404t-286.5 -251t-447.5 -84t-446.5 84.5t-282.5 250t-96 404.5zM523 710q0 -139 62.5 -242t246.5 -103q142 0 212.5 54t88 123.5t23.5 167.5q-6 139 -67 242.5t-257 103.5 q-309 0 -309 -346zM537 1476v62l287 300l290 -300v-66l-287 185z" />
<glyph unicode="&#xd5;" horiz-adv-x="1677" d="M10 714q0 181 55 318.5t161 231.5t260 142.5t349 48.5q259 0 447 -85.5t287 -252t99 -403.5t-99 -404t-286.5 -251t-447.5 -84t-446.5 84.5t-282.5 250t-96 404.5zM479 1652q147 270 322 79t323 -51l76 -40q-240 -232 -408 -50t-253 15zM523 710q0 -139 62.5 -242 t246.5 -103q142 0 212.5 54t88 123.5t23.5 167.5q-6 139 -67 242.5t-257 103.5q-309 0 -309 -346z" />
<glyph unicode="&#xd6;" horiz-adv-x="1677" d="M10 714q0 181 55 318.5t161 231.5t260 142.5t349 48.5q259 0 447 -85.5t287 -252t99 -403.5t-99 -404t-286.5 -251t-447.5 -84t-446.5 84.5t-282.5 250t-96 404.5zM443 1640q0 56 33 90t87 34q51 0 83.5 -33.5t32.5 -83.5q-5 -61 -38.5 -92t-83.5 -31q-48 0 -81 33 t-33 83zM523 710q0 -139 62.5 -242t246.5 -103q142 0 212.5 54t88 123.5t23.5 167.5q-6 139 -67 242.5t-257 103.5q-309 0 -309 -346zM1003 1640q0 56 33 90t87 34q51 0 83.5 -33.5t32.5 -83.5q-5 -61 -38.5 -92t-83.5 -31q-48 0 -81 33t-33 83z" />
<glyph unicode="&#xd8;" horiz-adv-x="1677" d="M2 140l134 108q-126 227 -126 466q0 181 55 318.5t161 231.5t260 142.5t349 48.5q259 0 410 -71.5t201 -109.5l110 88l112 -150l-88 -78q88 -183 88 -420t-99 -404t-286.5 -251t-447.5 -84t-555 149l-168 -132zM530 707q-6 -67 6 -135l520 400q0 76 -220 84 q-320 0 -306 -349zM640 420q4 -48 188 -52q148 0 238 76t94 245v123z" />
<glyph unicode="&#xd9;" horiz-adv-x="1454" d="M10 596v848h470v-854q-6 -146 56 -203t194 -61q106 2 177 62t67 202v854h470v-847q-3 -180 -59.5 -287.5t-143 -179.5t-217 -112t-290.5 -44q-133 3 -270.5 36.5t-240 105.5t-158 185t-55.5 295zM203 1796h462l176 -318z" />
<glyph unicode="&#xda;" horiz-adv-x="1454" d="M10 596v848h470v-854q-6 -146 56 -203t194 -61q106 2 177 62t67 202v854h470v-847q-3 -180 -59.5 -287.5t-143 -179.5t-217 -112t-290.5 -44q-133 3 -270.5 36.5t-240 105.5t-158 185t-55.5 295zM673 1478l176 318h462z" />
<glyph unicode="&#xdb;" horiz-adv-x="1454" d="M10 596v848h470v-854q-6 -146 56 -203t194 -61q106 2 177 62t67 202v854h470v-847q-3 -180 -59.5 -287.5t-143 -179.5t-217 -112t-290.5 -44q-133 3 -270.5 36.5t-240 105.5t-158 185t-55.5 295zM453 1476v62l287 300l290 -300v-66l-287 185z" />
<glyph unicode="&#xdc;" horiz-adv-x="1454" d="M10 596v848h470v-854q-6 -146 56 -203t194 -61q106 2 177 62t67 202v854h470v-847q-3 -180 -59.5 -287.5t-143 -179.5t-217 -112t-290.5 -44q-133 3 -270.5 36.5t-240 105.5t-158 185t-55.5 295zM379 1640q0 56 33 90t87 34q51 0 83.5 -33.5t32.5 -83.5q-5 -61 -38.5 -92 t-83.5 -31q-48 0 -81 33t-33 83zM827 1644q0 56 33 90t87 34q51 0 83.5 -33.5t32.5 -83.5q-5 -61 -38.5 -92t-83.5 -31q-48 0 -81 33t-33 83z" />
<glyph unicode="&#xdd;" horiz-adv-x="1472" d="M-130 1444h570l294 -446l298 446h570l-630 -914v-530h-472v530zM621 1478l176 318h462z" />
<glyph unicode="&#xde;" horiz-adv-x="1378" d="M40 0v1444h470v-253q400 1 507.5 -28t181.5 -79t123 -134.5t49 -220.5q-8 -126 -53 -214t-119 -139t-181 -79t-268 -26l-240 1v-272h-470zM510 530l222 -1q75 0 121.5 20.5t76 53t37.5 116.5q-2 76 -32.5 112.5t-79 56.5t-125.5 20h-220v-378z" />
<glyph unicode="&#xdf;" horiz-adv-x="1628" d="M60 -296v1740h985q237 -2 360.5 -82t149.5 -268q9 -144 -61 -226t-231 -135v-4q79 -10 146 -42.5t112.5 -77t70.5 -100.5t25 -110q0 -171 -87.5 -259t-225 -115t-333.5 -25h-287v292h195q83 -3 145 36t62 96q6 63 -50.5 99t-156.5 36l-235 1v316l264 -1q29 0 61 30.5 t34 81.5q-4 59 -38.5 83t-57.5 24h-349v-535v-855h-498z" />
<glyph unicode="&#xe0;" d="M-80 0l475 1444h717l483 -1444h-546l-91 260h-429l-91 -260h-518zM203 1796h462l176 -318zM548 552h398l-191 572z" />
<glyph unicode="&#xe1;" d="M-80 0l475 1444h717l483 -1444h-546l-91 260h-429l-91 -260h-518zM548 552h398l-191 572zM673 1478l176 318h462z" />
<glyph unicode="&#xe2;" d="M-80 0l475 1444h717l483 -1444h-546l-91 260h-429l-91 -260h-518zM473 1475v59l278 283l279 -283v-62l-277 174zM548 552h398l-191 572z" />
<glyph unicode="&#xe3;" d="M-80 0l475 1444h717l483 -1444h-546l-91 260h-429l-91 -260h-518zM407 1648q147 270 322 79t323 -51l76 -40q-240 -232 -408 -50t-253 15zM548 552h398l-191 572z" />
<glyph unicode="&#xe4;" d="M-80 0l475 1444h717l483 -1444h-546l-91 260h-429l-91 -260h-518zM443 1640q0 56 33 90t87 34q51 0 83.5 -33.5t32.5 -83.5q-5 -61 -38.5 -92t-83.5 -31q-48 0 -81 33t-33 83zM548 552h398l-191 572zM821 1640q0 56 33 90t87 34q51 0 83.5 -33.5t32.5 -83.5 q-5 -61 -38.5 -92t-83.5 -31q-48 0 -81 33t-33 83z" />
<glyph unicode="&#xe5;" d="M-80 0l475 1444h717l483 -1444h-546l-91 260h-429l-91 -260h-518zM548 552h398l-191 572zM557 1642q0 91 55 146.5t142 55.5q83 0 137.5 -55t54.5 -136q0 -82 -59.5 -140.5t-141.5 -58.5q-79 0 -133.5 53t-54.5 135zM633 1644q0 -50 33 -83t81 -33q50 0 83.5 31t38.5 92 q0 50 -32.5 83.5t-83.5 33.5q-54 0 -87 -34t-33 -90z" />
<glyph unicode="&#xe6;" horiz-adv-x="2062" d="M-80 0l475 1444h1605v-430h-768v-166h496v-252h-496v-166h890v-430h-1366v260h-227l-91 -260h-518zM548 552h208v570z" />
<glyph unicode="&#xe7;" horiz-adv-x="1484" d="M10 743q0 170 65.5 303.5t181.5 222t266.5 132t320.5 43.5h396h244v-430h-452q-152 0 -225 -9t-130 -30t-101 -73t-51 -184q5 -128 51 -183t112 -73t136 -25t208 -7h452v-430h-526v-112q107 -20 159 -68t52 -116q0 -92 -101.5 -160.5t-261.5 -68.5q-63 0 -159 8l15 87 q42 -12 100 -14q100 0 135.5 31t35.5 85q0 38 -39 66t-97 28q-17 0 -44 -3l-1 241q-143 -4 -333 79.5t-299.5 250.5t-109.5 409z" />
<glyph unicode="&#xe8;" horiz-adv-x="1360" d="M60 0v1444h1238v-430h-768v-166h496v-252h-496v-166h890v-430h-1360zM203 1796h462l176 -318z" />
<glyph unicode="&#xe9;" horiz-adv-x="1360" d="M60 0v1444h1238v-430h-768v-166h496v-252h-496v-166h890v-430h-1360zM673 1478l176 318h462z" />
<glyph unicode="&#xea;" horiz-adv-x="1360" d="M60 0v1444h1238v-430h-768v-166h496v-252h-496v-166h890v-430h-1360zM473 1475v59l278 283l279 -283v-62l-277 174z" />
<glyph unicode="&#xeb;" horiz-adv-x="1360" d="M60 0v1444h1238v-430h-768v-166h496v-252h-496v-166h890v-430h-1360zM443 1640q0 56 33 90t87 34q51 0 83.5 -33.5t32.5 -83.5q-5 -61 -38.5 -92t-83.5 -31q-48 0 -81 33t-33 83zM821 1640q0 56 33 90t87 34q51 0 83.5 -33.5t32.5 -83.5q-5 -61 -38.5 -92t-83.5 -31 q-48 0 -81 33t-33 83z" />
<glyph unicode="&#xec;" horiz-adv-x="550" d="M26 1796h371l113 -316zM40 0v1444h470v-1444h-470z" />
<glyph unicode="&#xed;" horiz-adv-x="550" d="M41 0v1444h467v-1444h-467zM41 1480l113 316h368z" />
<glyph unicode="&#xee;" horiz-adv-x="550" d="M40 0v1444h470v-1444h-470zM45 1481v59l228 283l229 -283v-62l-228 174z" />
<glyph unicode="&#xef;" horiz-adv-x="550" d="M3 1640q0 56 33 90t87 34q51 0 83.5 -33.5t32.5 -83.5q-5 -61 -38.5 -92t-83.5 -31q-48 0 -81 33t-33 83zM40 0v1444h470v-1444h-470zM315 1640q0 56 33 90t87 34q51 0 83.5 -33.5t32.5 -83.5q-5 -61 -38.5 -92t-83.5 -31q-48 0 -81 33t-33 83z" />
<glyph unicode="&#xf0;" horiz-adv-x="1804" d="M-42 542v252h254v650h852q173 0 305 -46t223 -124t151.5 -211t60.5 -346q-11 -197 -66 -335t-146 -218t-222.5 -124t-329.5 -40h-828v542h-254zM694 360h275q93 0 150 39.5t93 101t46 221.5q-3 146 -40.5 215.5t-96.5 109t-154 39.5h-273v-290h280v-254h-280v-182z" />
<glyph unicode="&#xf1;" horiz-adv-x="1430" d="M60 0v1444h470l430 -540v540h470v-1444h-470l-430 540v-540h-470zM391 1648q147 270 322 79t323 -51l76 -40q-240 -232 -408 -50t-253 15z" />
<glyph unicode="&#xf2;" horiz-adv-x="1677" d="M10 714q0 181 55 318.5t161 231.5t260 142.5t349 48.5q259 0 447 -85.5t287 -252t99 -403.5t-99 -404t-286.5 -251t-447.5 -84t-446.5 84.5t-282.5 250t-96 404.5zM203 1796h462l176 -318zM523 710q0 -139 62.5 -242t246.5 -103q142 0 212.5 54t88 123.5t23.5 167.5 q-6 139 -67 242.5t-257 103.5q-309 0 -309 -346z" />
<glyph unicode="&#xf3;" horiz-adv-x="1677" d="M10 714q0 181 55 318.5t161 231.5t260 142.5t349 48.5q259 0 447 -85.5t287 -252t99 -403.5t-99 -404t-286.5 -251t-447.5 -84t-446.5 84.5t-282.5 250t-96 404.5zM523 710q0 -139 62.5 -242t246.5 -103q142 0 212.5 54t88 123.5t23.5 167.5q-6 139 -67 242.5t-257 103.5 q-309 0 -309 -346zM673 1478l176 318h462z" />
<glyph unicode="&#xf4;" horiz-adv-x="1677" d="M10 714q0 181 55 318.5t161 231.5t260 142.5t349 48.5q259 0 447 -85.5t287 -252t99 -403.5t-99 -404t-286.5 -251t-447.5 -84t-446.5 84.5t-282.5 250t-96 404.5zM523 710q0 -139 62.5 -242t246.5 -103q142 0 212.5 54t88 123.5t23.5 167.5q-6 139 -67 242.5t-257 103.5 q-309 0 -309 -346zM537 1476v62l287 300l290 -300v-66l-287 185z" />
<glyph unicode="&#xf5;" horiz-adv-x="1677" d="M10 714q0 181 55 318.5t161 231.5t260 142.5t349 48.5q259 0 447 -85.5t287 -252t99 -403.5t-99 -404t-286.5 -251t-447.5 -84t-446.5 84.5t-282.5 250t-96 404.5zM479 1652q147 270 322 79t323 -51l76 -40q-240 -232 -408 -50t-253 15zM523 710q0 -139 62.5 -242 t246.5 -103q142 0 212.5 54t88 123.5t23.5 167.5q-6 139 -67 242.5t-257 103.5q-309 0 -309 -346z" />
<glyph unicode="&#xf6;" horiz-adv-x="1677" d="M10 714q0 181 55 318.5t161 231.5t260 142.5t349 48.5q259 0 447 -85.5t287 -252t99 -403.5t-99 -404t-286.5 -251t-447.5 -84t-446.5 84.5t-282.5 250t-96 404.5zM443 1640q0 56 33 90t87 34q51 0 83.5 -33.5t32.5 -83.5q-5 -61 -38.5 -92t-83.5 -31q-48 0 -81 33 t-33 83zM523 710q0 -139 62.5 -242t246.5 -103q142 0 212.5 54t88 123.5t23.5 167.5q-6 139 -67 242.5t-257 103.5q-309 0 -309 -346zM1003 1640q0 56 33 90t87 34q51 0 83.5 -33.5t32.5 -83.5q-5 -61 -38.5 -92t-83.5 -31q-48 0 -81 33t-33 83z" />
<glyph unicode="&#xf8;" horiz-adv-x="1677" d="M2 140l134 108q-126 227 -126 466q0 181 55 318.5t161 231.5t260 142.5t349 48.5q259 0 410 -71.5t201 -109.5l110 88l112 -150l-88 -78q88 -183 88 -420t-99 -404t-286.5 -251t-447.5 -84t-555 149l-168 -132zM530 707q-6 -67 6 -135l520 400q0 76 -220 84 q-320 0 -306 -349zM640 420q4 -48 188 -52q148 0 238 76t94 245v123z" />
<glyph unicode="&#xf9;" horiz-adv-x="1454" d="M10 596v848h470v-854q-6 -146 56 -203t194 -61q106 2 177 62t67 202v854h470v-847q-3 -180 -59.5 -287.5t-143 -179.5t-217 -112t-290.5 -44q-133 3 -270.5 36.5t-240 105.5t-158 185t-55.5 295zM203 1796h462l176 -318z" />
<glyph unicode="&#xfa;" horiz-adv-x="1454" d="M10 596v848h470v-854q-6 -146 56 -203t194 -61q106 2 177 62t67 202v854h470v-847q-3 -180 -59.5 -287.5t-143 -179.5t-217 -112t-290.5 -44q-133 3 -270.5 36.5t-240 105.5t-158 185t-55.5 295zM673 1478l176 318h462z" />
<glyph unicode="&#xfb;" horiz-adv-x="1454" d="M10 596v848h470v-854q-6 -146 56 -203t194 -61q106 2 177 62t67 202v854h470v-847q-3 -180 -59.5 -287.5t-143 -179.5t-217 -112t-290.5 -44q-133 3 -270.5 36.5t-240 105.5t-158 185t-55.5 295zM453 1476v62l287 300l290 -300v-66l-287 185z" />
<glyph unicode="&#xfc;" horiz-adv-x="1454" d="M10 596v848h470v-854q-6 -146 56 -203t194 -61q106 2 177 62t67 202v854h470v-847q-3 -180 -59.5 -287.5t-143 -179.5t-217 -112t-290.5 -44q-133 3 -270.5 36.5t-240 105.5t-158 185t-55.5 295zM379 1640q0 56 33 90t87 34q51 0 83.5 -33.5t32.5 -83.5q-5 -61 -38.5 -92 t-83.5 -31q-48 0 -81 33t-33 83zM827 1644q0 56 33 90t87 34q51 0 83.5 -33.5t32.5 -83.5q-5 -61 -38.5 -92t-83.5 -31q-48 0 -81 33t-33 83z" />
<glyph unicode="&#xfd;" horiz-adv-x="1472" d="M-130 1444h570l294 -446l298 446h570l-630 -914v-530h-472v530zM621 1478l176 318h462z" />
<glyph unicode="&#xfe;" horiz-adv-x="1378" d="M40 0v1444h470v-253q400 1 507.5 -28t181.5 -79t123 -134.5t49 -220.5q-8 -126 -53 -214t-119 -139t-181 -79t-268 -26l-240 1v-272h-470zM510 530l222 -1q75 0 121.5 20.5t76 53t37.5 116.5q-2 76 -32.5 112.5t-79 56.5t-125.5 20h-220v-378z" />
<glyph unicode="&#xff;" horiz-adv-x="1472" d="M-130 1444h570l294 -446l298 446h570l-630 -914v-530h-472v530zM379 1640q0 56 33 90t87 34q51 0 83.5 -33.5t32.5 -83.5q-5 -61 -38.5 -92t-83.5 -31q-48 0 -81 33t-33 83zM827 1644q0 56 33 90t87 34q51 0 83.5 -33.5t32.5 -83.5q-5 -61 -38.5 -92t-83.5 -31 q-48 0 -81 33t-33 83z" />
<glyph unicode="&#x152;" horiz-adv-x="2062" d="M24 716q-8 180 52 310t164 224t252 142t340 52h1168v-430h-768v-166h496v-252h-496v-166h890v-430h-1366q-176 -8 -360 86t-280 244t-92 386zM523 710q0 -139 62.5 -242t246.5 -103v691q-309 0 -309 -346z" />
<glyph unicode="&#x153;" horiz-adv-x="2062" d="M24 716q-8 180 52 310t164 224t252 142t340 52h1168v-430h-768v-166h496v-252h-496v-166h890v-430h-1366q-176 -8 -360 86t-280 244t-92 386zM523 710q0 -139 62.5 -242t246.5 -103v691q-309 0 -309 -346z" />
<glyph unicode="&#x178;" horiz-adv-x="1472" d="M-130 1444h570l294 -446l298 446h570l-630 -914v-530h-472v530zM379 1640q0 56 33 90t87 34q51 0 83.5 -33.5t32.5 -83.5q-5 -61 -38.5 -92t-83.5 -31q-48 0 -81 33t-33 83zM827 1644q0 56 33 90t87 34q51 0 83.5 -33.5t32.5 -83.5q-5 -61 -38.5 -92t-83.5 -31 q-48 0 -81 33t-33 83z" />
<glyph unicode="&#x2000;" horiz-adv-x="1277" />
<glyph unicode="&#x2001;" horiz-adv-x="2554" />
<glyph unicode="&#x2002;" horiz-adv-x="1277" />
<glyph unicode="&#x2003;" horiz-adv-x="2554" />
<glyph unicode="&#x2004;" horiz-adv-x="851" />
<glyph unicode="&#x2005;" horiz-adv-x="638" />
<glyph unicode="&#x2006;" horiz-adv-x="425" />
<glyph unicode="&#x2007;" horiz-adv-x="425" />
<glyph unicode="&#x2008;" horiz-adv-x="319" />
<glyph unicode="&#x2009;" horiz-adv-x="510" />
<glyph unicode="&#x200a;" horiz-adv-x="141" />
<glyph unicode="&#x2010;" horiz-adv-x="758" d="M92 377v360h574v-360h-574z" />
<glyph unicode="&#x2011;" horiz-adv-x="758" d="M92 377v360h574v-360h-574z" />
<glyph unicode="&#x2012;" horiz-adv-x="758" d="M92 377v360h574v-360h-574z" />
<glyph unicode="&#x2013;" horiz-adv-x="1208" d="M92 377v360h1024v-360h-1024z" />
<glyph unicode="&#x2014;" horiz-adv-x="2232" d="M92 377v360h2048v-360h-2048z" />
<glyph unicode="&#x2018;" horiz-adv-x="647" d="M170 1128v316h307l-1 -630zM474 816z" />
<glyph unicode="&#x2019;" horiz-adv-x="647" d="M168 815zM170 813v631h307v-315z" />
<glyph unicode="&#x201c;" horiz-adv-x="1139" d="M197 1128v316h307v-630zM502 816zM635 1128v316h307v-630zM940 816z" />
<glyph unicode="&#x201d;" horiz-adv-x="1139" d="M195 815zM197 813v631h307v-315zM633 815zM635 813v631h307v-315z" />
<glyph unicode="&#x201e;" horiz-adv-x="1649" d="M10 743q0 176 67.5 313.5t186.5 229t273.5 137t328.5 45.5q153 -4 315 -56t252 -142t132 -192t56 -154h-436q-74 124 -142 152t-148 28t-148 -26t-108 -70t-72 -106t-36 -186q0 -132 50 -208t112 -112t163 -46t180 15t147 113h-194v254h660v-732h-348v118 q-34 -48 -92 -79t-151 -47.5t-192 -16.5q-175 -3 -329 47t-272 146t-186.5 210.5t-68.5 364.5z" />
<glyph unicode="&#x202f;" horiz-adv-x="510" />
<glyph unicode="&#x205f;" horiz-adv-x="638" />
<glyph unicode="&#xe000;" horiz-adv-x="1445" d="M0 0v1445h1445v-1445h-1445z" />
</font>
</defs>
</svg>
